osu file format v5

[General]
AudioFilename: dejavu-osuedit.mp3
AudioLeadIn: 0
PreviewTime: -1
Countdown: 1
SampleSet: Normal

[Metadata]
Title:DejaVu
Artist:The World Ends With You OST
Creator:awp
Version:Ultimate

[Difficulty]
HPDrainRate:6
CircleSize:6
OverallDifficulty:7
SliderMultiplier:2
SliderTickRate:2

[Events]
//Background and Video events
0,0,"wewy_wp_002_1024x768_en.jpg"
//Break Periods
2,80252,87233
//Storyboard Layer 0 (Background)
//Storyboard Layer 1 (Failing)
//Storyboard Layer 2 (Passing)
//Storyboard Layer 3 (Foreground)
//Storyboard Sound Samples
//Background Colour Transformations
3,100,163,162,255

[TimingPoints]
4045,500.019805043112,4,1,1,100

[Colours]
Combo1 : 209,209,209
Combo2 : 61,27,222
Combo3 : 130,130,130
Combo4 : 234,119,15

[HitObjects]
160,112,8045,1,0
256,112,8295,1,0
352,112,8545,1,4
256,160,8795,1,2
256,160,8920,1,2
256,160,9045,1,2
160,208,9295,1,0
256,208,9545,1,4
352,208,9795,1,4
304,288,10045,2,0,B|384:368,2,100
192,288,10795,1,2
192,288,10920,1,2
192,288,11045,1,2
192,192,11295,1,2
240,192,11420,1,2
288,192,11545,1,2
288,288,11795,1,4
400,336,12045,6,0,C|464:256|416:160,1,200
416,48,12795,1,0
320,48,13045,1,0
224,48,13295,1,0
176,80,13420,1,0
128,48,13545,1,0
80,144,13795,1,0
80,256,14045,2,0,C|208:256,1,100
288,256,14545,2,0,C|416:256,1,100
400,144,15045,2,0,C|272:144,1,100
240,144,15420,2,0,C|240:96,1,50
128,96,15795,1,0
128,208,16045,1,0
176,304,16295,1,4
208,272,16420,1,4
240,240,16545,5,4
352,240,16795,1,0
464,240,17045,2,0,C|464:128,2,100
352,240,17795,2,0,C|352:352,2,100
256,240,18545,2,0,C|256:112,2,100
144,240,19295,1,0
144,352,19545,1,0
144,240,19795,1,4
144,192,19920,1,4
144,144,20045,1,4
144,32,20295,6,0,C|272:32,2,100
144,144,21045,1,0
256,144,21295,1,0
144,144,21545,1,0
256,144,21795,1,0
192,256,22045,1,2
224,224,22170,1,2
256,256,22295,1,2
368,256,22545,1,2
400,288,22670,1,2
432,256,22795,1,2
432,144,23045,1,2
400,112,23170,1,2
368,144,23295,1,2
256,112,23545,1,4
224,80,23670,1,4
192,112,23795,1,4
224,144,23920,1,4
256,112,24045,1,4
144,304,24545,6,2,C|368:304,2,200
144,192,25795,2,0,C|222:68|302:201,1,300
224,272,26795,2,4,C|224:160,4,100
224,172,28045,1,4
48,48,28545,5,2
256,48,29045,1,2
464,48,29546,1,0
422,120,29796,1,0
368,192,30046,1,0
256,192,30296,1,0
144,192,30546,1,0
80,112,30796,2,2,C|320:112,1,200
368,112,31546,1,2
368,336,32046,5,0
256,336,32296,1,0
144,336,32546,1,0
256,336,32796,1,4
256,336,32921,1,4
256,336,33046,1,4
256,224,33296,1,0
256,112,33546,1,0
256,224,33796,1,0
144,224,34046,1,4
144,112,34296,1,4
256,112,34546,1,0
368,112,34796,1,4
369,168,34921,1,4
368,224,35046,1,4
256,224,35296,1,4
256,168,35421,1,4
256,112,35546,1,4
144,112,35796,1,4
144,170,35921,1,4
144,224,36046,1,4
64,48,36546,5,0
144,112,36796,1,0
224,176,37046,1,0
304,240,37296,1,0
384,304,37546,1,2
384,192,37796,1,2
384,80,38046,1,0
288,144,38296,1,0
208,224,38546,1,0
128,304,38796,2,2,C|94:163|140:108|208:160,1,300
256,96,40046,6,2,B|256:304,2,200
448,80,41296,1,4
336,80,41546,2,4,C|192:80,1,100
128,80,42046,2,2,C|66:161|128:256,3,200
256,192,44046,12,0,46046
144,192,46546,1,0
368,192,47046,1,4
144,192,47546,1,4
256,96,48046,6,2,C|256:320,2,200
144,96,49296,1,2
144,320,49796,1,0
256,320,50046,1,0
368,320,50296,1,0
368,208,50546,1,0
368,96,50796,1,0
256,96,51046,1,0
144,96,51296,1,0
256,96,51546,1,0
256,192,51796,1,0
144,192,52046,1,4
144,192,52171,1,4
144,192,52296,1,4
256,192,52546,1,4
256,192,52671,1,4
256,192,52796,1,4
368,192,53046,1,4
368,192,53171,1,4
368,192,53296,1,4
256,192,53546,1,4
256,192,53671,1,4
256,192,53796,1,4
144,192,54046,1,4
144,192,54171,1,4
144,192,54296,1,4
144,304,54547,1,2
256,304,54797,1,2
368,304,55047,1,2
256,304,55297,1,2
256,192,55547,1,4
256,101,55797,1,4
256,102,56047,6,2,C|256:342,2,200
144,96,57297,2,2,C|256:16|336:32,1,200
400,96,58047,2,2,C|432:192|400:304,1,200
192,320,59047,2,2,C|96:288|160:208,1,200
368,192,60047,1,0
288,112,60297,1,0
176,112,60547,1,0
96,192,60797,1,0
144,288,61047,1,4
192,288,61172,1,4
240,288,61297,1,4
352,288,61547,1,4
320,256,61672,1,4
288,224,61797,1,4
256,144,62047,1,4
256,96,62172,1,4
256,48,62297,1,4
144,48,62547,1,4
144,96,62672,1,4
144,144,62797,1,4
198,224,63047,2,4,C|198:160,2,50
320,224,63547,2,4,C|320:176,2,50
256,112,64047,6,2,C|256:320,2,200
368,112,65297,1,0
160,112,65797,1,0
160,224,66047,2,0,C|272:224,1,100
368,224,66547,2,0,C|288:304,1,100
192,304,67047,2,2,C|80:304,1,100
48,208,67547,2,4,C|48:96,1,100
144,48,68047,2,2,C|272:48,1,100
352,48,68547,2,4,C|288:128,1,100
256,192,69047,12,0,72047
144,64,72547,1,0
368,64,73047,1,0
256,256,73547,1,0
240,80,74047,1,2
320,160,74297,1,2
416,240,74547,1,0
320,336,74797,1,0
240,256,75047,1,2
160,176,75297,1,2
96,80,75547,1,4
96,80,75672,1,4
96,80,75797,1,4
192,48,76047,5,0
304,48,76297,1,0
304,176,76547,1,0
192,176,76797,1,0
48,152,77047,6,0,B|63:61|122:33|206:52|255:184|323:336|387:407|527:414|565:237|576:128|536:8|419:-45|327:8|255:184|199:313|118:322|40:269|48:188,1,1200
112,64,88048,6,0,B|240:64,3,100
208,144,89048,6,0,B|96:144,3,100
112,256,90048,6,2,B|112:320,2,50
208,256,90548,2,2,B|208:304,2,50
304,256,91048,2,2,B|304:304,2,50
256,192,91548,2,4,B|256:144,4,50
256,48,92548,6,0,B|384:48,1,100
448,48,93048,2,0,B|448:176,1,100
448,256,93548,2,0,B|368:176,1,100
288,112,94048,2,2,B|208:192,1,100
112,192,94548,2,4,B|112:304,1,100
224,288,95048,2,2,B|352:288,1,100
320,192,95548,1,4
224,192,95798,1,4
224,96,96048,1,4
224,96,96173,1,4
224,96,96298,1,4
320,96,96548,5,0
416,96,96798,1,0
416,192,97048,1,0
320,192,97298,1,0
224,192,97548,1,0
128,192,97798,1,0
32,192,98048,1,2
32,288,98298,1,2
128,288,98548,1,0
224,288,98798,1,0
320,288,99048,1,2
320,288,99173,1,2
320,288,99298,1,2
416,288,99548,1,4
416,288,99673,1,4
416,288,99798,1,4
416,288,99923,1,4
416,288,100048,1,4
416,96,100548,6,2,B|333:-16|250:102,1,200
336,144,101298,1,2
352,224,101548,2,2,B|269:336|186:218,1,200
144,128,102298,1,2
48,80,102548,2,2,B|48:176|160:256,1,200
240,256,103298,2,2,B|240:144,1,100
336,160,103798,2,4,B|336:272,1,100
336,64,104548,5,0
240,64,104798,1,0
144,64,105049,1,0
240,64,105299,1,0
192,144,105549,1,0
256,224,105799,1,0
320,144,106049,1,4
256,144,106174,1,4
192,144,106299,1,4
192,240,106549,1,0
256,240,106674,1,0
320,240,106799,1,0
416,240,107049,1,4
416,192,107174,1,4
416,144,107299,1,4
352,192,107549,5,0
304,192,107674,1,0
256,192,107799,1,4
208,192,107924,1,4
160,192,108049,1,4
80,64,108549,6,0,B|80:192,1,100
80,263,109049,2,0,B|80:151,1,100
179,163,109549,2,0,B|67:163,1,100
179,163,110049,1,0
256,48,110549,1,0
352,48,110799,1,0
432,128,111049,1,0
432,224,111299,1,0
352,288,111549,1,2
256,288,111799,1,2
256,192,112049,1,4
96,192,112549,6,0,B|96:96|256:96,3,200
256,192,114299,1,0
192,272,114549,1,0
256,336,114799,1,0
320,272,115049,1,0
256,192,115299,1,0
256,96,115549,1,0
208,144,115799,1,4
256,144,115924,1,4
304,144,116049,1,4
96,192,116549,6,0,B|96:304|240:304,1,200
416,192,117549,2,0,B|416:304|272:304,1,200
256,256,118299,1,0
256,192,118549,1,0
256,256,118799,1,0
256,192,119049,1,0
256,192,119299,1,2
256,192,119424,1,2
256,192,119549,1,2
256,192,119799,1,4
256,288,120049,6,2,C|256:80,2,200
144,288,121299,1,0
352,288,121799,1,0
352,176,122049,2,0,C|240:176,1,100
144,176,122549,2,0,C|224:96,1,100
320,96,123049,2,2,C|432:96,1,100
464,192,123549,2,4,C|464:304,1,100
368,352,124049,2,2,C|240:352,1,100
160,352,124549,2,4,C|224:272,1,100
256,192,125049,12,0,127549
256,282,128049,6,2,C|256:42,2,200
352,288,129299,2,2,C|224:345|144:320,1,200
112,288,130049,2,2,C|80:192|112:80,1,200
320,64,131049,2,4,C|416:96|352:176,1,200
144,192,132049,1,0
224,272,132299,1,0
336,272,132549,1,0
416,192,132799,1,0
368,96,133049,1,4
320,96,133174,1,4
272,96,133299,1,4
160,96,133549,1,4
192,128,133674,1,4
224,160,133799,1,4
256,240,134049,1,4
256,288,134174,1,4
256,336,134299,1,4
368,336,134549,1,4
368,288,134674,1,4
368,240,134799,1,4
314,160,135049,2,4,C|314:224,2,50
192,160,135549,2,4,C|192:208,2,50
256,288,136050,6,2,C|256:64,2,200
368,288,137300,1,0
368,64,137800,1,0
256,64,138050,1,0
144,64,138300,1,0
144,176,138550,1,0
144,288,138800,1,0
256,288,139050,1,2
368,288,139300,1,2
256,288,139550,1,4
256,192,139800,1,4
368,192,140050,1,2
368,192,140175,1,2
368,192,140300,1,2
256,192,140550,1,2
256,192,140675,1,2
256,192,140800,1,2
144,192,141050,1,4
144,192,141175,1,4
144,192,141300,1,4
256,192,141550,1,4
256,192,141675,1,4
256,192,141800,1,4
368,192,142050,1,2
368,192,142175,1,2
368,192,142300,1,2
368,80,142551,1,4
256,80,142801,1,4
144,80,143051,1,4
256,80,143301,1,4
256,192,143551,1,4
256,283,143801,1,4
256,283,144050,6,2,B|256:75,2,200
64,299,145300,1,0
176,299,145550,2,0,C|320:299,1,100
384,299,146050,2,2,C|446:218|384:123,3,200
256,192,148050,12,0,150050
368,187,150550,1,0
144,187,151050,1,0
368,187,151550,1,4
256,144,152050,1,4
368,64,152550,5,0
144,64,153050,1,0
256,256,153550,1,0
272,80,154050,1,0
192,160,154300,1,0
96,240,154550,1,2
192,336,154800,1,2
272,256,155050,1,0
352,176,155300,1,0
416,80,155550,1,2
416,80,155675,1,2
416,80,155800,1,2
320,48,156050,5,0
208,48,156300,1,0
208,176,156550,1,0
320,176,156800,1,0
464,152,157050,6,0,B|449:61|390:33|306:52|257:184|189:336|125:407|-15:414|-53:237|-64:128|-24:8|93:-45|185:8|257:184|313:313|394:322|472:269|464:188,1,1200
