osu file format v5

[General]
AudioFilename: dejavu-osuedit.mp3
AudioLeadIn: 0
PreviewTime: -1
Countdown: 1
SampleSet: Normal

[Metadata]
Title:DejaVu
Artist:The World Ends With You OST
Creator:awp
Version:Normal

[Difficulty]
HPDrainRate:5
CircleSize:4
OverallDifficulty:5
SliderMultiplier:1.4
SliderTickRate:1

[Events]
//Background and Video events
0,0,"wewy_wp_002_1024x768_en.jpg"
//Break Periods
2,80252,87233
//Storyboard Layer 0 (Background)
//Storyboard Layer 1 (Failing)
//Storyboard Layer 2 (Passing)
//Storyboard Layer 3 (Foreground)
//Storyboard Sound Samples
//Background Colour Transformations
3,100,163,162,255

[TimingPoints]
4045,500.019805043112,4,1,1,100

[Colours]
Combo1 : 209,209,209
Combo2 : 61,27,222
Combo3 : 130,130,130
Combo4 : 234,119,15

[HitObjects]
176,112,8045,1,2
304,112,8545,1,2
416,192,9045,1,2
304,272,9545,2,4,B|240:272,1,70
128,272,10295,2,2,B|96:208|128:128,2,140
208,320,11545,1,4
208,240,11795,1,4
432,192,12545,6,0,B|272:192,2,140
432,128,13795,1,0
288,128,14295,1,0
144,128,14795,1,0
144,272,15295,2,2,B|208:208,2,70
256,80,16545,5,0
256,224,17045,1,4
320,96,17545,1,4
384,64,17795,1,4
400,192,18295,1,0
304,288,18795,1,0
192,192,19295,1,4
256,192,19545,1,4
320,192,19795,1,4
112,192,20545,6,0,B|112:128|256:112,2,140
112,256,21795,2,0,B|160:320|256:288,4,140
272,128,24545,6,2,B|96:128,1,140
240,224,25545,2,0,B|144:224,1,70
64,96,26545,1,2
112,48,26795,1,2
208,144,27295,1,4
352,304,28545,6,0,B|416:176,1,140
416,80,29546,1,0
352,80,29796,1,0
192,80,30546,1,0
128,80,30796,2,2,B|64:112|48:240|144:288,1,210
192,64,32546,6,4,B|352:64,1,140
432,160,33546,2,4,B|432:300,1,140
368,304,34296,1,4
304,304,34546,1,4
240,304,34796,2,4,B|80:304,1,140
112,96,36046,5,0
256,96,36546,1,0
400,96,37046,1,0
256,96,37546,1,0
240,256,38046,2,2,B|352:256,2,70
176,256,38796,2,2,B|176:160|254:30|352:162|352:266,1,350
64,128,41296,6,2,B|248:-12|432:128,1,350
352,192,43046,1,2
256,192,43546,1,2
160,192,44046,1,0
256,288,44796,1,0
320,288,45046,2,2,B|416:240|464:128|361:49|204:43|100:56|18:240|136:328|288:192,1,700
274,203,48046,5,4
208,320,48546,1,4
80,256,49046,1,4
96,192,49296,6,2,B|320:192,1,210
400,192,50546,1,2
400,64,51046,1,0
272,64,51546,1,0
144,64,52046,2,2,B|43:67|3:188|31:310|128:320|240:352|352:336|432:288|472:243|481:191|444:100|368:46|201:34|141:205|272:224,1,980
255,220,56047,5,4
368,128,56547,1,4
256,48,57047,1,4
192,48,57297,6,2,B|128:64|48:128|0:208|96:304|160:336|224:256|256:160|309:127|370:143|404:174|416:272,1,630
416,288,60047,2,2,B|463:133|420:36|266:14|120:20|20:52|0:288|112:352|208:368|304:320|352:288|352:181|192:160,1,980
208,162,64047,5,4
352,160,64547,1,4
288,288,65047,1,4
224,288,65297,5,0
80,288,65797,1,0
80,224,66047,1,0
80,80,66547,1,2
224,80,67047,1,2
224,224,67547,1,2
368,224,68047,1,2
256,192,68547,12,4,71547
128,80,72547,6,4,B|211:40|304:96,2,140
32,176,74047,1,4
176,192,74547,1,4
304,112,75047,2,0,B|304:256,1,140
208,272,76047,2,2,B|176:256|160:224|224:208|240:176|208:144|176:144|176:80,1,210
192,32,77047,2,2,B|256:48|359:119|400:224|368:304|260:378|232:384|128:336|96:304|80:288|48:240|40:145|128:16,1,840
256,48,88548,5,0
384,80,89048,1,0
416,208,89548,1,2
400,272,89798,1,2
272,336,90298,1,0
144,288,90798,1,0
64,176,91298,1,2
80,112,91548,1,2
128,64,91798,1,4
288,80,92548,6,0,B|213:79|144:144,1,140
96,224,93548,2,2,B|96:288|128:304,1,70
256,336,94298,2,0,B|340:336|400:288,1,140
400,192,95298,2,4,B|400:128|368:64,2,70
224,64,96548,5,0
96,112,97048,2,0,B|48:176|96:304,1,140
128,288,97798,2,0,B|176:320|272:272,1,140
384,192,98798,1,0
256,192,99298,1,2
192,192,99548,1,2
128,192,99798,1,2
256,320,100548,6,0,B|96:320,2,140
288,256,101798,1,0
416,320,102298,1,0
400,192,102798,2,4,B|416:117|352:48,2,140
256,48,104548,5,0
256,192,105049,1,0
256,336,105549,1,0
176,320,105799,2,0,B|112:192|192:80,1,210
224,144,106799,2,2,B|240:208|224:288,1,140
256,336,108549,5,0
256,192,109049,1,0
256,48,109549,1,0
320,80,109799,2,2,B|384:208|304:320,1,210
288,224,110799,2,2,B|288:160,4,70
288,224,112049,1,4
256,80,112549,6,0,B|173:88|128:144,1,140
160,272,113549,2,0,B|243:264|288:208,1,140
288,144,114299,1,0
288,80,114549,1,0
352,80,114799,2,0,B|368:160|304:272|192:208,1,210
256,48,116549,5,0
384,48,117049,1,0
256,48,117549,1,0
128,48,118049,2,2,B|128:112,2,70
64,48,118799,2,2,B|128:240|352:208,1,350
96,80,121299,5,0
272,80,121799,1,0
368,80,122049,2,4,B|436:93|464:176,3,140
336,304,124049,2,2,B|211:335|128:192,1,210
64,256,125049,2,2,B|48:176|94:74|144:44|222:32|134:296|299:319|483:269|489:132|320:48,1,700
240,64,128049,6,4,B|312:102|320:176,2,140
160,64,129299,1,0
160,224,129799,1,0
240,224,130049,2,0,B|384:224,1,140
368,80,131050,2,0,B|224:80,1,140
64,80,132050,2,2,B|64:176|96:320,1,210
176,320,133050,2,2,B|160:192|128:96|208:48|304:112|320:256|320:336|448:304|464:144|272:16,1,700
176,48,136050,6,4,B|80:80|32:160,2,140
160,128,137300,5,0
320,128,137800,2,0,C|432:128,1,70
240,128,138550,1,0
400,64,139050,1,0
400,224,139550,1,0
464,160,140050,2,2,B|352:128|272:176|208:160,1,210
208,96,141050,2,2,B|96:96|96:256|208:256|208:384|96:384|-16:384|-16:256|80:256|80:96|-16:96|-16:32|176:32,1,700
256,48,144050,6,4,B|352:48|400:112,2,140
144,176,145300,6,0,B|216:120|288:192,1,140
352,176,146050,2,0,B|433:200|416:304,3,140
256,192,148050,1,0
176,64,148800,1,2
256,64,149050,1,2
96,64,149550,1,4
96,192,150050,2,2,B|165:223|258:185,4,140
96,48,152550,5,0
256,48,153050,1,0
416,48,153550,1,4
416,192,154050,1,0
256,192,154550,1,4
96,192,155050,1,4
256,192,155551,1,4
256,192,156051,12,0,160051
