osu file format v5

[General]
AudioFilename: dejavu-osuedit.mp3
AudioLeadIn: 0
PreviewTime: -1
Countdown: 1
SampleSet: Normal

[Metadata]
Title:DejaVu
Artist:The World Ends With You OST
Creator:awp
Version:Hard

[Difficulty]
HPDrainRate:5
CircleSize:6
OverallDifficulty:7
SliderMultiplier:1.6
SliderTickRate:2

[Events]
//Background and Video events
0,0,"wewy_wp_002_1024x768_en.jpg"
//Break Periods
2,80267,87668
//Storyboard Layer 0 (Background)
//Storyboard Layer 1 (Failing)
//Storyboard Layer 2 (Passing)
//Storyboard Layer 3 (Foreground)
//Storyboard Sound Samples
//Background Colour Transformations
3,100,163,162,255

[TimingPoints]
4045,500.019805043111,4,1,1,100

[Colours]
Combo1 : 209,209,209
Combo2 : 61,27,222
Combo3 : 130,130,130
Combo4 : 234,119,15

[HitObjects]
176,112,8045,1,0
224,64,8295,1,0
272,144,8545,1,2
320,96,8795,1,2
352,176,9045,1,0
400,128,9295,1,0
464,176,9545,2,2,B|368:256,1,80
224,240,10295,1,0
224,64,10795,1,0
144,224,11295,1,4
176,272,11545,1,4
240,272,11795,1,4
432,192,12545,6,2,B|256:192,2,160
432,128,13795,2,2,B|256:128,2,160
256,240,15295,1,4
208,160,15545,1,4
304,160,15795,1,4
256,80,16545,5,0
256,160,16795,1,0
256,240,17045,1,0
256,160,17295,1,0
320,112,17545,1,0
400,64,17795,1,4
400,192,18295,1,4
304,288,18795,1,4
192,192,19295,1,4
256,192,19545,1,4
320,192,19795,1,4
112,192,20545,6,2,B|131:112|256:112,2,160
112,256,21795,2,4,B|163:327|288:288,4,160
48,208,24045,1,4
48,128,24295,1,4
112,128,24545,6,2,B|288:128,1,160
432,64,25545,1,4
432,144,25795,1,4
336,144,26045,1,4
176,48,26545,1,0
96,48,26795,1,0
96,224,27295,1,0
112,304,27545,2,4,B|272:176,1,160
352,304,28545,6,0,B|448:272|416:176,1,160
416,80,29546,1,0
352,80,29796,1,0
192,80,30546,1,0
128,80,30796,2,4,B|64:112|48:240|112:272,1,160
160,224,31546,1,4
256,144,32046,1,2
128,64,32546,5,0
304,64,33046,1,2
464,128,33546,1,0
464,304,34046,1,4
384,304,34296,1,4
304,304,34546,1,4
224,304,34796,2,0,B|143:345|32:304,2,160
224,224,36046,5,4
256,96,36546,1,0
400,96,37046,1,0
256,96,37546,1,0
240,256,38046,2,4,B|352:256,2,80
256,192,38796,12,0,40046
256,192,40546,1,0
112,192,41046,1,0
64,128,41296,6,2,B|185:30|336:64,1,240
448,64,42546,1,2
320,192,43046,1,2
144,192,43546,1,2
144,352,44046,1,2
256,192,44796,1,4
256,192,45046,1,4
256,192,45296,12,0,48046
256,192,48546,1,0
80,192,49046,1,0
80,112,49296,6,2,B|288:112,1,160
320,112,50046,1,2
400,240,50546,1,2
400,80,51046,1,2
272,64,51546,1,2
144,64,52046,2,4,B|61:101|33:188|144:288,1,240
208,256,53046,1,4
256,192,53296,12,0,56047
256,192,56547,1,0
256,48,57047,1,0
208,48,57297,6,2,B|144:64|64:128|16:208|112:304|176:336|293:322|337:246|384:176,1,560
208,192,59547,1,2
320,64,60047,1,2
320,240,60797,1,4
256,192,61047,1,4
256,192,61297,12,4,64047
256,192,64547,1,0
256,336,65047,1,0
160,336,65297,1,0
80,240,65797,1,0
80,176,66047,1,0
144,48,66547,1,0
320,48,67047,1,0
240,208,67547,1,4
416,208,68047,1,0
214,147,68797,1,4
294,147,69047,1,4
256,192,69297,12,0,72047
176,144,72547,6,0,B|259:104|352:160,2,160
256,304,74047,1,2
176,192,74547,1,2
304,112,75047,2,4,B|304:304,1,160
128,192,76047,1,0
384,192,76793,1,0
288,160,77047,6,0,B|321:89|432:96|494:127|503:218|482:296|362:332|277:325|240:272|205:50|173:17|121:16|32:77|14:184|27:248|76:284|129:286|206:255|272:176,1,960
256,48,88548,5,0
432,48,89048,1,0
448,224,89548,1,4
448,304,89798,1,4
272,304,90298,1,0
96,304,90798,1,0
96,128,91298,1,4
96,48,91548,1,4
176,48,91798,1,4
256,304,92548,6,2,C|226:221|262:128,2,160
304,224,93798,2,2,C|302:128|256:80,2,160
400,192,95298,2,4,B|400:128|368:64,2,80
224,64,96548,5,0
96,112,97048,2,2,B|48:176|96:304,1,160
144,320,97798,1,2
304,288,98298,1,2
304,112,98798,1,2
128,112,99298,1,4
128,192,99548,1,4
128,272,99798,1,4
256,320,100548,6,0,B|96:320,2,80
288,144,101548,1,0
288,224,101798,1,0
416,320,102298,1,0
400,192,102798,2,4,B|416:117|352:48,4,80
256,48,104548,5,0
256,192,105049,1,0
256,336,105549,1,0
176,320,105799,2,2,B|112:192|192:80,1,240
224,144,106799,2,2,B|252:218|224:304,1,160
256,336,108549,5,0
144,192,109049,1,0
256,48,109549,1,2
320,80,109799,2,2,C|384:144|320:208|224:144,1,240
208,128,110799,2,2,C|160:96|96:176|192:256,1,240
288,224,112049,1,2
432,112,112549,5,0
256,112,113049,1,0
80,112,113549,1,0
256,112,114049,1,4
256,192,114299,1,4
256,272,114549,1,0
336,272,114799,2,4,C|333:110|288:32,1,240
256,48,116549,5,0
432,48,117049,1,0
256,48,117549,1,0
128,48,118049,2,4,B|128:112,1,80
128,208,118549,2,4,C|208:208,1,80
256,192,119049,12,0,120049
256,192,120549,5,0
96,192,121049,1,0
96,96,121299,5,0
272,96,121799,1,0
352,96,122049,2,2,B|420:109|448:192,4,80
176,48,123549,1,0
160,224,124049,2,2,B|239:321|282:320|352:192,1,240
256,192,125049,1,2
256,192,125299,12,4,128049
256,192,128549,2,4,C|96:192,1,160
96,272,129299,1,0
272,272,129799,1,0
272,176,130049,2,2,B|416:80,1,160
416,224,131050,2,2,B|288:96,1,160
128,80,132050,2,2,B|-8:176|112:304,1,240
128,192,133050,1,2
256,192,133300,12,0,136050
256,192,136550,1,0
432,192,137050,1,0
432,272,137300,6,2,C|272:272,1,160
256,192,138050,2,2,C|256:96|208:48,1,160
256,192,139050,1,4
432,192,139550,1,4
336,48,140050,2,2,B|224:16|144:64|144:208,1,240
256,192,141050,1,2
256,192,141300,12,0,144050
256,192,144550,6,2,B|256:288|192:336,1,160
176,240,145300,6,2,B|120:168|192:96,1,160
272,112,146050,2,4,B|353:136|336:240,4,80
96,128,147550,1,0
256,192,148050,1,0
176,64,148800,1,4
256,64,149050,1,4
256,192,149300,12,0,152050
256,192,152550,5,0
256,48,153050,1,2
416,48,153550,1,2
416,192,154050,1,0
256,192,154550,1,0
96,192,155050,1,2
256,192,155551,1,2
191,136,156050,6,0,C|128:77|65:84|30:129|36:206|70:266|136:282|203:248|352:97|409:78|450:96|479:134|476:203|448:258|404:285|348:284|298:254|204:152,1,1280
