osu file format v5

[General]
AudioFilename: dejavu-osuedit.mp3
AudioLeadIn: 0
PreviewTime: -1
Countdown: 1
SampleSet: Normal
EditorBookmarks: 56052

[Metadata]
Title:DejaVu
Artist:The World Ends With You OST
Creator:awp
Version:Easy

[Difficulty]
HPDrainRate:4
CircleSize:3
OverallDifficulty:4
SliderMultiplier:1.2
SliderTickRate:1

[Events]
//Background and Video events
0,0,"wewy_wp_002_1024x768_en.jpg"
//Break Periods
2,80252,87233
//Storyboard Layer 0 (Background)
//Storyboard Layer 1 (Failing)
//Storyboard Layer 2 (Passing)
//Storyboard Layer 3 (Foreground)
//Storyboard Sound Samples
//Background Colour Transformations
3,100,163,162,255

[TimingPoints]
4045,500.019805043112,4,1,1,100

[Colours]
Combo1 : 209,209,209
Combo2 : 61,27,222
Combo3 : 130,130,130
Combo4 : 234,119,15

[HitObjects]
256,96,8045,1,0
48,96,10045,1,0
96,336,12045,2,2,B|160:208|272:272|336:208|214:98|287:28|464:80,2,480
256,192,17045,5,0
400,128,18045,1,4
400,208,18545,1,4
400,288,19045,1,4
400,288,19545,1,4
304,288,20045,6,2,B|48:288,1,240
80,80,22045,2,2,B|336:80,1,240
432,80,23545,1,2
432,80,24045,1,4
432,192,24545,6,0,B|256:192,1,120
224,192,25545,2,0,B|128:192,3,120
112,304,27545,1,4
352,304,28545,6,0,B|416:240,1,120
432,96,29546,1,0
304,96,30046,1,0
176,96,30546,2,0,B|96:96,2,120
112,272,32546,6,0,B|224:272,1,120
352,272,33546,2,0,B|352:176,1,120
224,144,34546,2,0,B|128:144,2,120
256,288,36546,6,0,B|256:176,1,120
400,160,37546,2,0,B|400:256,2,120
256,192,39046,1,0
256,192,39546,1,0
256,192,40046,1,4
64,128,41296,6,2,B|248:-12|455:140,1,420
352,192,43546,1,2
256,192,44046,1,4
160,192,44546,1,4
256,192,45046,12,0,48046
96,192,49296,6,0,B|320:192,1,180
400,192,50546,1,0
400,64,51046,1,0
272,64,51546,1,0
144,64,52046,2,2,B|43:67|3:188|31:310|128:320|240:352|352:336|432:288|472:243|481:191|444:100|368:46|201:34|141:205|272:224,1,960
80,80,57297,6,0,B|425:174|64:304,1,420
416,288,60047,2,2,B|463:133|420:36|266:14|120:20|20:52|0:288|112:352|208:368|304:320|352:288|352:181|224:160,1,960
112,96,65547,5,0
224,96,66047,1,4
336,96,66547,1,0
448,96,67047,1,4
384,192,67547,1,0
256,192,68047,1,4
256,192,68547,12,0,72047
64,112,74047,2,0,B|160:112,1,120
304,112,75047,2,0,B|304:176,1,120
176,240,76047,2,4,B|80:240,8,120
256,48,88548,5,0
384,80,89048,1,0
448,192,89548,1,2
384,304,90048,1,2
256,336,90548,1,0
128,304,91048,1,0
64,192,91548,1,2
128,80,92048,1,2
256,48,92548,6,0,B|192:48|128:80,1,120
112,192,93548,2,2,B|112:256|144:320,1,120
256,336,94548,2,0,B|320:336|384:304,1,120
400,192,95548,2,2,B|400:128|368:64,1,120
240,64,96548,6,0,B|192:112,2,60
256,192,97548,2,0,B|320:128,2,60
384,224,98548,2,2,B|336:272,2,60
256,192,99548,1,2
256,192,99798,1,2
256,192,100048,1,4
256,320,100548,6,0,B|96:320,2,120
256,320,101798,1,0
384,320,102298,1,0
384,192,102798,2,0,B|384:128|320:80,2,120
256,48,104548,5,2
256,192,105049,1,2
256,336,105549,1,0
128,304,106049,2,2,B|64:176|144:64,2,240
256,336,108549,5,2
256,192,109049,1,2
256,48,109549,1,0
384,80,110049,2,2,B|448:208|368:320,2,240
256,48,112549,6,2,B|144:112,1,120
48,176,113549,2,0,B|128:288,1,120
256,272,114549,2,0,B|256:128,3,120
256,48,116549,1,2
384,48,117049,1,2
256,48,117549,1,0
128,48,118049,2,0,B|128:112,6,60
256,224,121049,6,0,B|336:224|416:192|368:128|240:80|176:96|112:160|80:256|144:320|208:384|336:384|432:320|480:240|464:160|398:94|336:64,2,840
48,320,129049,6,0,C|48:160|137:111|240:156|295:292|369:313|454:271|416:112,2,840
64,64,137550,5,0
192,64,138050,2,2,C|304:64,1,120
448,64,139050,1,2
448,192,139550,1,2
320,192,140050,2,4,B|320:96|272:48|212:44|175:104|177:186|164:270|72:270|32:112,2,480
320,304,144550,1,2
192,304,145050,1,2
144,176,145550,6,0,B|258:94|368:176,1,240
368,256,147050,2,0,B|254:338|144:256,1,240
256,192,148550,1,4
256,64,149050,1,4
128,64,149550,1,4
128,192,150050,6,0,B|240:192,3,120
448,256,152550,6,0,B|448:144,1,120
320,144,153550,2,0,B|208:144,1,120
64,144,154550,2,0,B|64:272,1,120
256,192,156051,12,0,160051
