osu file format v5

[General]
AudioFilename: dejavu-osuedit.mp3
AudioLeadIn: 0
PreviewTime: -1
Countdown: 1
SampleSet: Normal
StackLeniency: 0.7
Mode: 0
LetterboxInBreaks: 1
EditorDistanceSpacing: 0.800000011920929

[Metadata]
Title:DejaVu
Artist:The World Ends With You OST
Creator:Arlock64
Version:Hard
Source:
Tags:

[Difficulty]
HPDrainRate:8
CircleSize:7
OverallDifficulty:9
SliderMultiplier:1.4
SliderTickRate:1

[Events]
//Background and Video events
0,0,"wewy_wp_002_1024x768_en.jpg"
//Break Periods
2,80252,87233
//Storyboard Layer 0 (Background)
//Storyboard Layer 1 (Failing)
//Storyboard Layer 2 (Passing)
//Storyboard Layer 3 (Foreground)
//Storyboard Sound Samples
//Background Colour Transformations
3,100,163,162,255

[TimingPoints]
4045,500.019805043112,4,1,1,100,1,0

[Colours]
Combo1 : 209,209,209
Combo2 : 61,27,222
Combo3 : 130,130,130
Combo4 : 234,119,15

[HitObjects]
249,80,8045,1,0
249,80,8545,1,0
249,80,9045,2,0,B|176:165,1,105
180,159,9795,1,0
249,80,10295,1,0
215,123,10795,1,0
275,106,11295,1,0
426,111,11545,1,0
344,105,11795,1,0
344,181,12545,5,0
311,256,13045,1,0
346,224,13545,1,0
400,71,13795,2,0,B|349:122|349:122|405:186,3,140
402,71,15545,1,0
393,173,15795,1,0
253,162,16545,6,0,B|233:155|278:91|272:160|248:206|223:174|251:145|247:163|254:159|247:171|245:177|245:172|246:166|252:161|252:166|252:166|279:95,1,140
212,187,17545,1,0
255,121,17795,1,0
255,121,18295,2,0,B|255:205|342:74|346:176,1,140
192,192,19295,1,4
312,190,19545,1,4
253,189,19795,1,4
112,192,20545,6,0,B|112:128|256:112,2,140
219,118,21858,1,0
112,192,22295,1,0
259,308,22795,1,0
311,236,23295,1,0
197,241,23545,1,0
255,238,23795,1,0
257,131,24545,5,0
257,131,25045,1,0
240,224,25545,2,0,B|144:224,1,70
240,224,26545,1,0
211,295,26795,1,0
226,259,27295,1,0
352,304,28545,6,0,B|416:176,1,140
339,79,29546,1,0
416,79,29796,1,0
192,80,30546,1,0
256,192,30796,12,0,32046
189,0,32546,6,4,B|349:0,1,140
259,383,33546,2,4,B|411:385,1,140
253,182,34296,1,4
254,300,34546,1,4
247,73,34796,2,4,B|87:73,1,140
112,96,36046,5,0
256,96,36546,1,0
400,96,37046,1,0
256,96,37546,1,0
258,265,38046,1,4
258,265,38296,1,4
258,265,38546,1,4
169,264,38796,6,4,B|154:69|171:261|367:265|350:59|366:264,1,350
254,192,40546,5,4
254,192,41046,1,4
64,128,41296,6,2,B|248:-12|245:-1,1,210
267,67,42546,1,2
254,191,43046,1,2
346,190,43546,1,2
155,191,44046,2,2,B,1,210
256,192,45046,12,4,47546
256,196,48046,5,0
256,196,48546,1,0
256,196,49046,1,0
96,192,49296,6,2,B|320:192,1,210
400,192,50546,1,2
400,64,51046,1,0
272,64,51546,1,0
256,192,52046,12,4,55547
255,220,56047,5,4
368,128,56547,1,4
256,48,57047,1,4
225,145,57297,6,4,B|143:388|-64:90|-15:234|451:354|165:90|170:87|524:133|297:14|162:88,1,630
125,181,60047,6,4,B|-19:236|49:89|200:-34|207:-37|221:-34|231:-20|496:350|-64:355|117:339|86:331|345:97|291:43|152:326|222:276|438:44|262:-35|496:346,1,980
208,162,64047,5,4
352,160,64547,1,4
279,166,65047,6,4,B|287:83|286:82,1,70
280,244,65797,1,0
380,244,66047,1,0
128,166,66547,2,4,B|128:316,3,140
256,192,68547,1,0
256,192,68797,12,0,72047
128,80,72547,6,4,B|211:40|304:96,2,140
32,176,74047,2,4,B,1,140
304,112,74547,1,0
184,146,75047,2,0,B|184:290,1,140
208,272,76047,2,2,B|176:256|160:224|224:208|240:176|208:144|176:144|176:80,1,210
192,32,77047,2,2,B|256:48|359:119|400:224|368:304|260:378|232:384|128:336|96:304|80:288|48:240|40:145|128:16,1,840
256,48,88548,6,4,B,1,140
406,196,89548,2,2,B|376:285,1,70
272,336,90298,1,0
144,288,90798,1,0
104,166,91298,2,2,B|149:110,2,70
288,80,92548,6,0,B|213:79|144:144,1,140
264,131,93548,1,2
171,174,93798,1,2
256,336,94298,2,0,B|340:336|400:288,1,140
406,179,95298,1,4
253,179,95548,1,4
117,186,95798,1,4
267,129,96548,6,0,B|134:205,2,140
285,121,97798,2,0,B|333:153|429:105,1,140
384,192,98798,1,0
256,192,99298,1,2
192,192,99548,1,2
128,192,99798,1,2
256,320,100548,6,0,B|96:320,2,140
288,256,101798,1,0
416,320,102298,1,0
418,233,102798,1,4
414,318,103298,1,4
416,280,103798,1,4
214,19,104548,1,0
352,271,105049,1,0
117,289,105549,1,0
117,289,105799,2,0,B|53:161|133:49,1,210
396,122,106799,2,2,B|412:186|396:266,1,140
0,161,108549,2,0,B|-71:100|-3:-3|200:65|1:-3,1,280
215,182,109799,2,2,B|279:310|199:422,1,210
256,192,110799,12,2,112049
230,0,112549,6,0,B|147:8|102:64,1,140
132,384,113549,2,0,B|215:376|260:320,1,140
305,251,114299,1,0
329,168,114549,1,0
352,80,114799,2,0,B|368:160|304:272|192:208,1,210
512,46,116549,5,0
254,52,117049,1,0
386,52,117549,1,2
252,52,118049,1,2
387,50,118299,1,2
509,49,118549,1,2
379,52,118799,2,2,B|443:244|133:139,1,350
257,176,120549,1,2
257,176,121049,1,2
262,79,121299,5,2
428,81,121799,1,2
256,192,122049,12,4,122549
256,192,122549,12,4,123049
256,192,123049,12,4,123549
256,192,123549,12,4,124049
127,213,124799,5,4
64,256,125049,2,2,B|48:176|94:74|144:44|222:32|134:296|299:319|483:269|489:132|320:48,1,700
433,0,128049,6,4,B|505:38|513:112,2,140
512,110,129299,1,0
363,35,129799,1,0
370,112,130049,2,0,B|514:112,1,140
509,112,131050,2,0,B|365:112,1,140
256,192,132050,12,2,135550
194,203,136050,6,4,B|98:235|168:121,2,140
160,128,137300,5,0
202,214,137800,2,0,C|314:214,1,70
240,128,138550,1,0
400,64,139050,1,0
400,224,139550,1,0
464,160,140050,2,2,B|352:128|272:176|208:160,1,210
256,192,141050,12,2,143550
201,58,144050,5,2
277,195,144550,1,2
124,196,145050,1,2
144,176,145300,6,0,B|216:120|288:192,1,140
352,176,146050,2,0,B|433:200|416:304,3,140
256,192,148050,1,0
176,64,148800,1,2
174,209,149050,1,2
256,192,149300,12,2,152050
512,207,152550,5,0
338,254,153050,1,0
335,144,153550,1,4
207,201,154050,1,0
105,148,154550,1,4
109,249,155050,1,4
0,204,155551,1,4
256,192,156051,12,0,160051
