osu file format v5

[General]
AudioFilename: dejavu-osuedit.mp3
AudioLeadIn: 0
PreviewTime: -1
Countdown: 1
SampleSet: Normal
StackLeniency: 0.7
Mode: 0
LetterboxInBreaks: 1
EditorDistanceSpacing: 0.800000011920929

[Metadata]
Title:DejaVu
Artist:The World Ends With You OST
Creator:Arlock64
Version:Easy
Source:
Tags:

[Difficulty]
HPDrainRate:5
CircleSize:3
OverallDifficulty:3
SliderMultiplier:1.6
SliderTickRate:2

[Events]
//Background and Video events
0,0,"wewy_wp_002_1024x768_en.jpg"
//Break Periods
2,80267,87668
//Storyboard Layer 0 (Background)
//Storyboard Layer 1 (Failing)
//Storyboard Layer 2 (Passing)
//Storyboard Layer 3 (Foreground)
//Storyboard Sound Samples
//Background Colour Transformations
3,100,163,162,255

[TimingPoints]
4045,500.019805043111,4,1,1,100,1,0

[Colours]
Combo1 : 209,209,209
Combo2 : 61,27,222
Combo3 : 130,130,130
Combo4 : 234,119,15

[HitObjects]
240,33,8545,1,0
241,35,9045,1,0
240,30,9545,6,0,B|247:359,2,320
432,192,12545,6,2,B|256:192,2,160
337,144,14045,1,0
338,219,14545,1,0
341,295,15045,1,0
408,255,15545,2,0,B|404:149,1,80
256,80,16545,5,0
256,240,17045,1,0
320,112,17545,1,0
400,64,17795,1,4
400,192,18295,1,4
304,288,18795,1,4
192,192,19295,1,4
320,192,19795,1,4
112,192,20545,6,2,B|131:112|256:112,2,160
112,256,21795,2,4,B|163:327|288:288,4,160
112,128,24545,6,2,B|288:128,1,160
432,64,25545,1,4
432,144,25795,1,4
176,48,26545,1,0
96,48,26795,1,0
112,304,27545,2,4,B|272:176,1,160
352,304,28545,6,0,B|448:272|416:176,1,160
416,80,29546,1,0
352,80,29796,1,0
192,80,30546,1,0
128,80,30796,2,4,B|64:112|48:240|121:289,1,240
256,144,32046,1,2
128,64,32546,5,0
304,64,33046,1,2
464,128,33546,1,0
423,252,34046,2,0,B|257:80|257:80|83:271,1,480
224,224,36046,5,4
256,96,36546,1,0
400,96,37046,1,0
256,96,37546,1,0
240,256,38046,2,4,B|352:256,2,80
256,192,38796,12,0,40046
256,192,40546,5,0
112,192,41046,1,0
64,128,41296,6,2,B|185:30|336:64,1,240
448,64,42546,1,2
320,192,43046,1,2
144,192,43546,1,2
144,352,44046,1,2
217,196,44921,2,0,B|300:194,1,80
256,192,45296,12,0,48046
256,192,48546,5,0
80,192,49046,1,0
80,112,49296,6,2,B|288:112,1,160
320,112,50046,1,2
400,240,50546,1,2
400,80,51046,1,2
272,64,51546,1,2
144,64,52046,2,4,B|61:101|33:188|144:288,1,240
208,256,53046,1,4
256,192,53296,12,0,56047
256,192,56547,5,0
256,48,57047,1,0
208,48,57297,6,2,B|144:64|64:128|16:208|112:304|176:336|293:322|337:246|384:176,1,560
208,192,59547,1,2
211,152,60047,2,0,B|33:153|33:153|33:152|32:312,1,320
256,192,61297,12,0,64047
254,102,64547,6,0,B|257:318,1,200
80,240,65797,1,0
77,179,66047,1,0
145,49,66547,2,0,B|338:49,3,160
214,147,68797,1,4
294,147,69047,1,4
256,192,69297,12,0,72047
176,144,72547,6,0,B|259:104|352:160,2,160
176,193,74047,1,2
237,151,74547,1,2
304,112,75047,2,4,B|304:304,1,160
378,239,76047,1,0
362,164,76793,1,0
288,160,77047,6,0,B|321:89|432:96|494:127|503:218|482:296|362:332|277:325|240:272|205:50|173:17|121:16|32:77|14:184|27:248|76:284|129:286|206:255|272:176,1,960
264,74,88548,6,0,B|448:72,1,160
436,187,89548,6,0,B|438:283,1,80
253,330,90298,6,0,B|79:333,1,160
88,124,91298,6,0,B|164:46,2,80
256,304,92548,6,2,C|226:221|262:128,2,160
333,298,93798,2,2,C|355:194|309:146,2,160
279,247,95298,2,4,B|279:183|247:119,2,80
194,11,96548,2,2,B|43:15|43:15|44:191,1,320
77,267,97798,2,2,B|313:12,1,320
359,102,99298,2,2,B|359:281,1,160
110,318,100548,2,0,B|435:320,1,320
303,5,102298,1,0
406,7,102798,1,0
256,48,104548,2,0,B|254:359,1,280
15,189,105799,2,2,B|91:187|505:176,1,480
257,343,108549,6,2,B|135:199|135:199|257:42,1,360
240,63,109924,2,0,B|468:34|468:34|473:295,1,480
155,109,112549,2,0,B|159:291,2,160
224,134,113799,2,4,B|224:229,3,80
294,228,114799,2,4,C|291:66|246:-12,1,240
261,63,116549,2,4,B|453:67,2,160
261,63,117549,1,0
154,74,118174,2,4,B|154:167,3,80
256,192,119049,12,0,120049
256,192,120549,5,0
96,192,121049,1,0
96,96,121299,5,0
299,138,121799,2,4,B|386:207,5,80
176,48,123549,1,0
160,224,124049,2,2,B|239:321|282:320|352:192,1,240
256,192,125049,1,2
256,192,125299,12,4,128049
256,192,128549,6,4,C|96:192,1,160
94,271,129299,2,2,B,1,160
272,176,130049,2,2,B|416:80,1,160
416,224,131050,2,2,B|288:96,1,160
128,80,132050,2,2,B|-8:176|112:304,1,240
128,192,133050,1,2
256,192,133300,12,0,136050
256,192,136550,5,0
432,192,137050,1,0
432,272,137300,6,2,C|272:272,1,160
271,269,138050,2,2,C|271:173|223:125,1,160
312,94,139050,1,4
375,156,140050,2,2,B|263:124|183:172|183:316,1,240
192,260,141050,1,2
256,192,141300,12,0,144050
256,192,144550,6,2,B|256:288|192:336,1,160
176,240,145300,6,2,B|120:168|192:96,1,160
272,112,146050,2,4,B|353:136|336:240,4,80
96,128,147550,1,0
148,76,148050,1,0
225,71,148800,1,4
303,72,149050,1,4
256,192,149300,12,0,152050
1,234,152550,6,4,B,1,480
461,139,154050,2,4,B|12:148|11:153,1,440
191,136,156050,6,0,C|128:77|65:84|30:129|36:206|70:266|136:282|203:248|352:97|409:78|450:96|479:134|476:203|448:258|404:285|348:284|298:254|204:152,1,1280
