osu file format v5

[General]
AudioFilename: dejavu-osuedit.mp3
AudioLeadIn: 0
PreviewTime: -1
Countdown: 1
SampleSet: Normal
StackLeniency: 0.7
Mode: 0
LetterboxInBreaks: 1
EditorDistanceSpacing: 0.699999988079071

[Metadata]
Title:DejaVu
Artist:The World Ends With You OST
Creator:Arlock64
Version:Easier
Source:
Tags:

[Difficulty]
HPDrainRate:3
CircleSize:3
OverallDifficulty:0
SliderMultiplier:2
SliderTickRate:2

[Events]
//Background and Video events
0,0,"wewy_wp_002_1024x768_en.jpg"
//Break Periods
2,80252,87233
//Storyboard Layer 0 (Background)
//Storyboard Layer 1 (Failing)
//Storyboard Layer 2 (Passing)
//Storyboard Layer 3 (Foreground)
//Storyboard Sound Samples
//Background Colour Transformations
3,100,163,162,255

[TimingPoints]
4045,500.019805043112,4,1,1,100,1,0

[Colours]
Combo1 : 0,0,0
Combo2 : 61,27,222
Combo3 : 130,130,130
Combo4 : 234,119,15

[HitObjects]
252,82,8545,1,8
254,162,9545,1,8
255,240,10545,1,8
248,344,11045,2,2,B|247:-65,1,400
240,40,12545,5,8
240,120,13045,1,8
240,200,13545,1,8
240,280,14045,1,8
320,280,14545,1,8
400,280,15045,1,8
400,192,15545,1,0
400,192,15795,1,0
488,128,16545,6,0,B|72:128,1,400
104,200,18045,2,0,B|512:200,1,400
448,288,19545,1,8
448,288,19795,1,8
256,192,20545,12,2,24045
256,224,24545,5,0
256,224,25045,1,0
256,224,25545,1,8
256,224,25795,1,8
352,232,26545,1,8
352,232,26795,1,8
256,192,27295,12,2,28045
256,176,28545,5,8
256,176,29045,1,8
256,176,29546,1,8
256,176,29796,2,2,B|8:-16,1,300
18,0,30796,2,2,B|456:304,1,500
256,176,32546,5,0
312,112,33046,1,0
376,48,33546,1,0
440,120,34046,1,8
440,120,34296,1,8
440,120,34546,1,8
440,120,34796,2,2,B|-24:328,1,500
256,168,36546,5,8
256,208,37046,1,8
256,256,37546,1,8
328,256,38046,1,0
400,256,38296,1,0
256,192,38421,12,2,40046
248,176,41296,6,0,B,1,200
448,176,42046,1,0
448,96,42546,1,0
368,96,43046,1,0
296,96,43546,1,0
184,104,44046,1,0
80,104,44796,1,0
256,192,45046,12,2,48046
256,168,49296,5,0
256,168,49796,1,0
256,168,50046,1,0
352,200,50546,1,0
272,272,51046,1,0
136,272,51546,1,0
64,168,52046,1,0
16,64,52796,1,0
0,0,53046,2,2,B|568:-40|568:-40|568:392,1,1000
392,256,57297,5,0
288,176,57797,1,0
288,176,58047,1,0
208,120,58547,1,0
136,72,59047,1,0
200,0,59547,1,0
242,65,60047,2,0,B|506:329,1,350
256,192,61047,12,2,64047
192,176,65297,5,0
64,176,65797,1,0
0,249,66047,2,0,B|264:240|562:244,1,550
312,164,68047,1,0
185,62,68797,1,0
75,0,69047,2,2,B|398:-6|399:-7|399:-7|575:199|553:225|553:225|471:383|471:383|255:407|26:377,1,1200
55,288,72547,2,0,B|55:72,6,200
136,240,76047,1,0
160,8,76797,1,0
242,0,77047,2,2,B|240:392|240:392|566:393|566:393|568:344|568:344|565:393|566:-75,1,1200
256,184,88548,6,0,B|16:192,5,200
72,248,91548,2,0,B|200:248,1,100
256,240,92548,2,0,B|256:24,2,200
256,240,93798,2,0,B|24:240,2,200
248,240,95298,2,2,B|360:240,2,100
248,176,96548,5,0
248,176,97048,1,0
248,176,97548,1,0
248,176,97798,1,0
331,176,98298,1,0
411,178,98798,1,0
411,97,99298,1,2
411,97,99548,1,2
411,97,99798,1,2
254,93,100548,5,0
255,172,101048,1,0
177,174,101548,1,0
97,173,101798,1,0
17,172,102298,1,0
14,253,102798,1,0
95,253,103298,1,0
172,256,103798,1,0
256,192,104548,12,2,108049
255,184,108549,5,0
254,106,109049,1,0
333,109,109549,1,0
417,122,109799,2,2,B|416:289|416:289|253:290,1,300
256,192,110799,12,0,112049
252,191,112549,5,0
195,132,113049,1,0
139,72,113549,1,0
75,129,114049,2,2,B|75:249,3,100
149,194,115299,1,0
254,161,116549,5,0
173,162,117049,1,0
95,161,117549,1,0
95,238,118049,2,2,B|94:346,2,100
256,192,118799,12,0,120049
256,184,121299,5,0
256,184,121799,1,0
256,184,122049,1,0
256,184,122549,1,0
256,184,123049,1,0
256,184,123549,1,0
256,184,124049,1,0
256,184,124799,1,0
256,192,124924,12,0,128049
252,192,129299,5,0
251,111,129799,1,0
252,35,130049,1,0
182,34,130550,1,0
104,37,131050,1,0
104,117,131550,1,0
104,197,132050,1,0
184,199,132800,1,0
256,192,132925,12,2,136050
254,185,137300,5,0
254,107,137800,1,0
330,108,138050,1,0
409,114,138550,1,0
485,116,139050,1,2
484,194,139550,1,2
488,272,140050,1,2
406,270,140800,1,0
256,192,140925,12,2,144050
256,194,145300,5,0
257,270,145800,1,0
256,346,146050,1,0
178,348,146550,1,0
175,271,147050,1,2
176,192,147550,1,2
252,192,148050,1,2
329,192,148800,1,0
256,192,149050,12,0,152050
255,186,152550,5,0
180,187,153050,1,0
102,187,153550,1,0
25,189,154050,1,0
27,267,154550,1,0
91,323,155050,1,2
169,328,155551,1,2
250,331,156051,1,2
331,331,156801,1,0
504,384,157051,2,0,B|409:383|409:383|409:279|409:279|481:279|481:279|481:167|481:167|409:167|409:167|409:71|409:71|313:71|313:71|313:71|313:-41|313:-41|233:-41|233:-41|233:71|233:71|1:71|1:71|0:8|0:8,1,1200
