osu file format v5

[General]
AudioFilename: 36 Three Minutes Clapping.mp3
AudioLeadIn: 0
PreviewTime: -1
Countdown: 1
SampleSet: Normal

[Metadata]
Title:Three Minutes Clapping
Artist:The World Ends With You
Creator:eee
Version:Normal

[Difficulty]
HPDrainRate:4
CircleSize:6
OverallDifficulty:6
SliderMultiplier:1.4
SliderTickRate:2

[Events]
//Background and Video events
0,0,"eee.jpg"
//Break Periods
//Storyboard Layer 0 (Background)
//Storyboard Layer 1 (Failing)
//Storyboard Layer 2 (Passing)
//Storyboard Layer 3 (Foreground)
//Storyboard Sound Samples
//Background Colour Transformations
3,100,163,162,255

[TimingPoints]
0,821.917808219178,4,1,0,100

[HitObjects]
379,90,4006,1,0
350,136,4212,1,0
325,90,4520,1,0
277,94,4623,2,0,B|160:92,1,105
149,154,5547,2,0,B|269:230,2,140
79,106,7910,5,0
112,156,8219,1,0
140,103,8424,1,0
195,104,8835,2,0,B|332:105,1,122.5
427,270,9965,1,0
371,271,10171,1,0
316,270,10479,1,0
234,269,10890,2,0,B|78:268,1,140
100,221,12020,5,0
156,223,12226,1,0
205,223,12431,1,0
272,224,12739,2,0,B|415:222,1,140
418,133,13972,5,0
365,132,14178,1,0
314,131,14383,1,0
260,133,14999,2,0,B|126:133,1,122.5
86,75,15924,5,0
143,76,16438,2,0,B|347:76,1,192.5
344,137,17979,2,0,B|147:140,1,192.5
85,143,19417,1,0
73,62,19931,5,0
154,62,20445,1,0
95,136,20958,1,0
188,134,21472,1,0
145,206,22089,2,0,B|286:207,1,122.5
445,78,24041,5,0
392,78,24246,1,0
345,76,24452,1,0
288,76,24657,2,0,B|159:77,1,122.5
106,81,25684,2,0,B|38:168|110:253,1,175
101,241,27020,2,0,B|216:242,1,105
277,241,27945,5,0
309,284,28253,1,0
334,237,28458,1,0
374,202,28664,2,0,B|438:126|360:99,1,122.5
271,104,29897,2,0,B|144:102,1,122.5
159,169,30924,2,0,B|46:168,1,105
61,72,32054,2,0,B|211:72,2,140
78,137,34006,1,0
77,228,34520,1,0
153,232,34931,2,0,B|289:232,1,122.5
395,226,35958,1,0
395,140,36472,1,0
307,140,36986,2,0,B|147:140,1,157.5
101,233,38938,5,0
178,233,39349,1,0
279,237,39965,1,0
367,234,40479,1,0
367,146,41095,1,0
278,147,41506,1,0
199,149,42020,1,0
116,147,42431,1,0
113,216,43047,1,0
204,215,43458,1,0
207,137,43972,1,0
294,132,44486,1,0
298,214,45000,1,0
392,215,45513,1,0
386,127,45924,1,0
311,123,46643,2,0,B|156:124,1,140
83,64,48082,2,0,B|176:24|203:84|259:24|286:96|261:85,1,192.5
178,136,49623,5,0
226,216,50136,1,0
274,129,50650,1,0
332,200,51164,1,0
376,253,51472,1,0
371,330,52089,6,0,B|305:364|305:364|266:316|266:316|263:324,1,140
334,136,53732,5,0
286,216,54245,1,0
238,129,54759,1,0
180,200,55273,1,0
130,251,55479,1,0
90,66,55993,6,0,B|156:32|156:32|195:80|195:80|198:72,1,140
400,136,57636,1,0
312,139,58253,1,0
321,198,58767,1,0
238,205,59178,1,0
140,204,59486,1,0
76,284,59794,6,0,B|111:335|112:328|112:328|146:268|146:268|164:335|156:328,1,175
112,136,61643,1,0
200,139,62260,1,0
191,198,62774,1,0
274,205,63185,1,0
372,204,63493,1,0
256,192,64006,12,0,64931
99,116,65342,2,0,B|192:115,4,87.5
256,192,67910,12,0,69041
398,120,69965,2,0,B|300:120,3,87.5
91,127,71917,5,0
134,186,72534,1,0
168,120,72945,1,0
130,280,73767,2,0,B|157:339|157:339|239:241|239:241|269:340|264:334,1,280
421,127,75924,5,0
378,186,76541,1,0
344,120,76952,1,0
382,280,77774,2,0,B|355:339|355:339|273:241|273:241|243:340|248:334,1,280
155,317,79931,6,0,B|74:318|74:318|72:237|72:237|165:236|165:236|156:328,1,332.5
214,320,82397,2,0,B|302:321,3,70
357,317,84041,6,0,B|438:318|438:318|440:237|440:237|347:236|347:236|356:328,1,332.5
298,320,86507,2,0,B|210:321,3,70
228,320,87945,1,0
226,238,88356,6,0,B|227:109,1,122.5
163,114,89383,1,0
268,112,89897,1,0
351,113,90410,1,0
424,112,90924,2,0,B|424:227,1,105
448,320,91952,6,0,B|349:319,2,87.5
449,324,93390,2,0,B|448:247|448:247|355:250,1,157.5
369,249,94828,2,0,B|366:244|370:139|370:139|266:139,1,210
200,140,96369,2,0,B|97:139,3,87.5
89,204,98424,1,0
133,264,98938,1,0
181,196,99452,1,0
211,268,100171,2,0,B|320:268,1,105
373,271,100993,1,0
408,271,101404,1,0
413,192,101815,2,0,B|290:192,2,105
67,75,103972,5,0
120,75,104177,1,0
167,73,104383,1,0
224,76,104588,2,0,B|353:77,1,122.5
406,81,105615,2,0,B|474:168|402:253,1,175
411,241,106951,2,0,B|295:243,1,105
235,239,107876,5,0
202,283,108184,1,0
173,235,108389,1,0
136,195,108595,2,0,B|72:119|150:92,1,122.5
199,96,109828,2,0,B|323:98,1,122.5
336,167,110855,2,0,B|449:166,1,105
442,73,111985,2,0,B|292:73,2,140
440,140,113937,1,0
441,233,114349,1,0
350,233,114760,2,0,B|214:233,1,122.5
106,222,115787,1,0
107,136,116301,1,0
194,130,116815,2,0,B|354:130,1,157.5
101,233,118664,5,0
177,229,119178,1,0
267,225,119794,1,0
360,229,120308,1,0
392,147,120924,1,0
300,139,121335,1,0
198,140,121849,1,0
112,140,122260,1,0
109,222,122773,1,0
186,222,123287,1,0
388,283,124006,5,0
304,284,124520,1,0
391,210,125034,1,0
258,206,125547,1,0
332,144,126061,2,0,B|192:143,1,122.5
142,211,127089,2,0,B|282:214,1,122.5
400,340,128116,6,0,B|360:308|360:308|336:351|336:351|304:303|304:303|306:304,1,157.5
128,124,129760,5,0
195,124,130273,2,0,B|281:124,1,70
288,192,131198,2,0,B|352:192,1,52.5
412,56,132020,2,0,B|361:111|361:111|318:57|318:57|294:97,1,175
384,124,133767,5,0
317,124,134280,2,0,B|231:124,1,70
224,192,135205,2,0,B|160:192,1,52.5
140,51,136027,1,0
104,92,136232,1,0
82,141,136438,1,0
77,190,136746,1,0
89,239,136952,1,0
256,192,137773,12,0,139417
398,223,139931,5,0
397,156,140239,1,0
336,156,140445,1,0
335,220,140753,1,0
251,190,141061,1,0
256,192,141780,12,0,143424
92,116,143938,1,0
156,116,144246,1,0
215,114,144452,1,0
272,116,144657,1,0
328,116,144863,1,0
338,230,145684,2,0,B|230:229,3,105
98,220,147945,1,0
99,159,148253,1,0
163,160,148458,1,0
163,224,148767,1,0
244,192,149075,1,0
256,49,149794,6,0,B|255:173,1,122.5
250,272,151130,2,0,B|248:340,1,52.5
430,113,151952,1,0
369,109,152157,1,0
373,46,152465,1,0
311,48,152671,1,0
304,113,152979,1,0
205,146,153904,2,0,B|128:68|128:68|105:111,1,157.5
96,192,155342,1,0
128,320,155753,5,0
128,256,156061,1,0
192,256,156266,1,0
192,320,156472,1,0
256,320,156677,1,0
256,256,156986,1,0
382,107,157397,2,0,B|253:107,2,122.5
381,169,159246,1,0
65,91,159965,1,0
131,89,160171,1,0
173,89,160479,1,0
234,91,160684,2,0,B|364:92,1,122.5
387,290,161917,1,0
323,292,162123,1,0
387,226,162328,1,0
317,224,162636,1,0
253,225,162842,1,0
190,222,163150,1,0
188,285,163356,1,0
392,95,163972,1,0
342,94,164178,1,0
296,94,164486,1,0
239,92,164691,2,0,B|143:91,1,87.5
106,271,166027,1,0
172,273,166232,1,0
166,201,166643,1,0
242,199,167054,1,0
253,273,167465,1,0
