osu file format v5

[General]
AudioFilename: dejavu-osuedit.mp3
AudioLeadIn: 0
PreviewTime: -1
Countdown: 1
SampleSet: Normal
StackLeniency: 0.7
Mode: 0

[Metadata]
Title:DejaVu
Artist:The World Ends With You
Creator:mortalkombatfan_1998
Version:Hard

[Difficulty]
HPDrainRate:2
CircleSize:5
OverallDifficulty:3
SliderMultiplier:2
SliderTickRate:2

[Events]
//Background and Video events
0,0,"0066224890801_500X500.jpg"
//Break Periods
2,80245,86605
//Storyboard Layer 0 (Background)
//Storyboard Layer 1 (Failing)
//Storyboard Layer 2 (Passing)
//Storyboard Layer 3 (Foreground)
//Storyboard Sound Samples
//Background Colour Transformations
3,100,163,162,255

[TimingPoints]
4045,500,4,1,0,100

[HitObjects]
96,128,8045,1,0
135,229,9045,1,0
226,229,9711,1,0
155,179,10211,1,0
174,264,10711,1,0
171,224,11545,1,0
171,224,12045,1,0
117,153,13045,5,0
132,231,13545,1,0
176,187,14045,1,0
99,194,14545,1,0
132,192,15045,1,0
132,192,15545,1,0
129,99,17045,5,0
93,173,17545,1,0
183,158,18045,1,0
183,158,18545,1,0
183,158,18878,1,0
157,154,19545,1,0
71,158,20545,2,0,L|96:239|203:259|182:224,7,200
178,248,24545,1,0
177,159,25045,1,0
172,198,25545,1,0
172,198,25711,1,0
136,157,26545,5,0
137,203,26878,1,0
173,202,27378,1,0
217,167,28545,2,0,C|431:218,7,200
195,164,32545,1,0
198,228,33045,1,0
245,203,33545,1,0
168,210,33878,1,0
182,126,34545,1,0
75,151,36545,5,0
127,153,36878,1,0
181,149,37545,1,0
194,211,37878,1,0
147,210,38378,1,0
99,209,38878,1,0
166,319,40045,2,0,C|129:260|239:253|436:236|394:204,1,400
222,115,42045,1,0
271,115,42545,1,0
316,115,43045,1,0
267,144,43878,1,0
263,204,44711,1,0
168,282,45045,2,0,C|304:224|346:293|343:295,5,200
120,190,48045,1,0
177,267,48545,1,0
199,181,49045,1,0
134,182,49878,5,0
174,252,50378,1,0
190,182,50878,1,0
190,182,51045,1,0
124,132,52045,1,0
200,136,52711,1,0
182,241,53045,2,0,C|257:345|334:276,5,200
72,196,56545,1,0
92,285,57045,1,0
123,218,57545,1,0
154,154,58045,1,0
178,251,58545,1,0
194,194,59045,1,0
49,162,60045,1,0
77,264,60545,1,0
102,212,60878,1,0
246,295,62045,2,0,C|154:262|131:159|159:72|216:35|329:70|397:125|405:257|343:266,1,733.333333333333
328,266,64878,1,0
121,133,66045,2,0,C|131:267|232:309|322:181|294:82|193:44|119:68|87:128|251:259|358:230|478:220,1,1200
85,262,71045,2,0,C|90:192|144:114|234:83|318:146|361:262|253:256,3,600
171,222,76045,1,0
268,261,76545,1,0
125,259,77045,6,0,C|176:123|235:101|300:126|359:221|368:239,3,400
63,83,88045,5,0
64,164,88545,1,0
151,116,89545,1,0
152,179,89878,1,0
227,116,91211,5,0
227,186,91378,1,0
266,156,91711,1,0
134,113,93045,5,0
177,149,93545,1,0
179,72,94878,1,0
231,121,95378,1,0
276,91,95878,1,0
276,191,96711,2,0,C|379:155|361:79|299:50|208:62|156:92|150:129|147:179|163:238|231:293|295:305|409:263|470:175|479:111|458:57|387:7|300:-11|187:-9|108:22|78:62|69:129|69:185|72:264|89:318|134:347|184:366|243:381|298:381|377:373|439:331|478:281,1,2200
44,151,102711,1,0
53,218,103211,1,0
81,172,103711,1,0
124,101,105378,1,0
119,238,106045,1,0
229,237,106545,1,0
219,117,106878,1,0
174,192,107545,1,0
104,119,108545,2,0,L|338:130|281:129|227:126|230:230|231:256,1,466.666666666667
54,60,110545,2,0,L|174:284|217:151|270:288|369:41|366:53,1,800
357,311,113045,2,0,L|165:318|176:69|369:86,1,600
175,154,114545,2,0,L|316:153,1,133.333333333333
179,257,115045,2,0,L|320:255,1,133.333333333333
85,37,116378,2,0,L|213:320|249:117|301:301|401:46,1,933.333333333333
60,75,120045,2,0,L|126:44|231:191|363:32|161:324,1,800
85,160,122545,5,0
106,282,123045,1,0
156,181,123545,1,0
247,168,123878,1,0
181,82,124711,1,0
181,82,125045,1,0
256,192,125711,12,0,127545
107,97,128878,5,0
199,123,129545,1,0
353,124,130045,1,0
359,206,130378,1,0
244,203,131045,1,0
175,197,131545,1,0
181,276,132045,1,0
246,269,132545,1,0
293,267,133045,1,0
256,192,133878,12,0,135878
102,109,137045,1,0
106,237,137711,1,0
190,231,138045,1,0
202,129,138545,1,0
150,184,139045,1,0
142,102,139545,1,0
63,168,139878,1,0
85,257,140711,1,0
85,257,141045,1,0
256,192,141878,12,0,145045
85,87,146045,1,0
246,79,146545,1,0
252,172,147045,1,0
104,164,147545,1,0
107,224,148045,1,0
229,214,148545,1,0
256,192,150045,12,0,151878
67,81,153045,5,0
224,70,153545,1,0
226,167,154045,1,0
97,151,154545,1,0
98,229,155045,1,0
186,216,155378,1,0
186,216,155545,1,0
187,89,156045,1,0
186,216,156545,1,0
447,293,157045,2,0,L|104:294|92:89|364:86|368:90|364:209|297:207|184:206|190:293,1,1200
