osu file format v6

[General]
AudioFilename: 05 Calling.mp3
AudioLeadIn: 0
PreviewTime: -1
Countdown: 1
SampleSet: Soft
StackLeniency: 0.7
Mode: 0
LetterboxInBreaks: 1
SkinPreference:Default

[Editor]
DistanceSpacing: 0.800000011920929
BeatDivisor: 6
GridSize: 32

[Metadata]
Title:Calling
Artist:The World Ends With You
Creator:Powergannon
Version:Easy
Source:The World Ends With You
Tags:the world ends with you calling nintendo ds video game anime rpg

[Difficulty]
HPDrainRate:4
CircleSize:5
OverallDifficulty:4
SliderMultiplier:1.9
SliderTickRate:4

[Events]
//Background and Video events
0,0,"pin.jpg"
//Break Periods
2,34688,35986
2,42354,42501
2,67808,80228
2,133415,154470
//Storyboard Layer 0 (Background)
//Storyboard Layer 1 (Fail)
//Storyboard Layer 2 (Pass)
//Storyboard Layer 3 (Foreground)
//Storyboard Sound Samples
//Background Colour Transformations
3,100,0,0,0

[TimingPoints]
8215.15271618983,909.090909090909,4,2,0,100,1,0

[HitObjects]
256,192,4497,1,8
256,192,5443,1,0
256,192,6359,1,8
256,192,7279,1,0
256,192,8177,1,8
256,192,9100,1,0
256,192,10046,1,8
256,192,10996,1,0
256,192,11898,1,8
256,192,12831,1,0
256,192,13765,1,8
256,192,14651,1,0
256,192,15639,1,8
256,192,16485,1,0
256,192,17447,1,8
256,192,18381,1,0
256,192,19277,1,8
256,192,20213,1,0
256,192,21093,1,8
256,192,22009,1,0
160,160,22594,2,0,B|192:96|241:70|296:85,1,169.178639352322
224,160,25003,1,0
224,160,25422,1,0
192,256,25936,1,0
192,256,26134,2,0,B|128:256|96:224|96:192|96:160|128:128,1,192.753482699394
320,64,29847,2,0,B|384:128|384:192|384:224|352:256,1,190
96,96,32534,1,0
96,96,32832,1,0
192,96,33280,1,0
192,96,33579,2,0,B|288:256|160:288|192:256,1,190
224,192,37306,5,0
224,192,37457,1,0
224,192,37758,1,0
224,192,37907,2,0,B|320:96|288:128,1,95
320,192,38952,1,0
256,224,39400,1,0
192,224,39549,1,0
160,192,39847,2,0,B|96:128|128:64,1,126.666666666667
160,192,41093,2,0,B|256:192|256:192,1,95
256,128,41700,2,0,B|160:128,1,95
256,192,43821,5,0
256,192,44275,1,2
160,160,44730,1,0
160,192,44881,1,0
160,224,45184,1,0
160,256,45487,1,0
192,256,45790,1,0
224,256,45942,1,0
288,256,46245,2,0,B|384:192|320:96|288:128,1,158.333333333333
256,128,47306,2,0,B|192:128,2,63.3333333333333
160,192,48518,1,0
192,256,48821,1,0
256,288,48972,1,0
320,256,49275,1,0
352,192,49427,1,0
320,128,49730,1,0
256,96,50033,1,0
192,96,50336,1,0
160,128,50639,1,0
128,224,50942,2,2,B|256:224,2,126.666666666667,0|2|0
288,128,52609,1,0
288,128,52912,1,0
288,64,53669,2,0,B|128:96|160:192|128:288|320:256|320:256,1,348.333333333333
352,224,56245,1,0
352,224,56700,1,0
352,128,57457,2,0,B|256:64|160:64|128:128|96:224,1,316.666666666667
256,192,59881,1,0
256,192,60336,1,0
384,192,61093,2,0,B|352:96|288:64|192:64|128:96|96:160,1,348.333333333333
256,192,63669,1,0
256,192,64124,1,0
352,192,64881,1,0
352,128,65184,1,0
352,64,65487,1,0
288,64,65942,1,0
288,128,66245,2,0,B|288:320|96:320,1,285
96,192,81548,6,0,B|128:96|224:64,1,190
416,192,84124,5,0
416,192,84578,1,0
416,192,84881,1,0
416,128,85184,2,0,B|288:64|224:64,1,190
64,64,88972,2,0,B|256:64,1,190
384,64,91700,1,0
384,64,92003,1,0
384,64,92457,1,0
384,160,92760,2,0,B|320:160|256:192,1,190
256,192,96396,1,0
384,192,96548,1,0
384,288,97154,1,0
256,288,97609,1,0
128,288,98215,2,0,B|128:32,1,253.333333333333
256,128,100184,1,0
256,128,100336,1,0
320,128,100487,1,0
384,128,100790,1,0
384,128,101093,1,0
384,224,101548,2,0,B,1,158.333333333333
160,224,102609,2,0,B|96:128|128:128,2,95
224,288,103821,1,0
256,192,105336,1,0
256,192,106093,1,0
256,192,107003,1,0
256,192,107912,1,0
128,160,111396,2,0,B|192:128|256:128,1,158.333333333333
320,224,114881,2,0,B|256:256,2,126.666666666667
128,160,118669,2,0,B|160:96|224:64,2,158.333333333333
352,160,122457,2,0,B|320:256,2,158.333333333333
256,208,126093,12,0,133215
256,192,155790,5,0
256,192,156245,1,0
256,192,156700,1,0
256,192,157154,1,0
256,192,157609,1,0
256,192,158063,1,0
256,192,158518,1,0
288,96,159124,2,0,B|256:64,4,63.3333333333333
192,160,160790,1,0
192,160,161093,1,0
192,160,161396,1,0
256,256,161851,2,0,B|320:192|320:160|320:128,1,126.666666666667
256,208,162760,12,0,168972
256,192,170790,5,0
256,192,171245,1,0
