osu file format v5

[General]
AudioFilename: Super_Metroid_AlltheWorldinOneGirl_OC_ReMix.mp3
AudioLeadIn: 0
PreviewTime: -1
Countdown: 1
SampleSet: Soft
StackLeniency: 0.7
Mode: 0

[Metadata]
Title:All the World in One Girl
Artist:The Wingless
Creator:buraimaster1234
Version:Normal
Source:
Tags:

[Difficulty]
HPDrainRate:4
CircleSize:4
OverallDifficulty:3
SliderMultiplier:1.3
SliderTickRate:1

[Events]
//Background and Video events
//Break Periods
2,36823,44456
2,89732,105937
2,141823,157365
//Storyboard Layer 0 (Background)
//Storyboard Layer 1 (Failing)
//Storyboard Layer 2 (Passing)
//Storyboard Layer 3 (Foreground)
//Storyboard Sound Samples
//Background Colour Transformations
3,100,255,255,255

[TimingPoints]
2226,545.454545454545,4,2,0,100

[Colours]
Combo1 : 232,236,51
Combo2 : 69,219,62
Combo3 : 64,180,223
Combo4 : 233,73,117

[HitObjects]
96,288,2225,1,0
96,176,2771,1,0
208,176,3316,2,2,L|208:80,1,65
416,112,4407,2,2,L|416:208,2,65
320,192,5498,5,2
256,192,5771,1,0
192,192,6044,1,0
256,288,6589,1,6
368,288,7135,6,2,L|368:192,1,65
320,176,7680,2,2,L|224:176,1,65
432,176,8771,1,0
352,256,9316,1,0
352,320,9589,2,2,L|256:320,1,65
256,272,10135,1,0
192,288,10407,1,0
96,256,10953,2,2,B|96:128|166:80|261:72|229:369|352:128,1,390
448,192,13135,6,2,B|442:344|351:358|319:171|247:258|246:370|176:381|128:336,1,390
96,224,15316,2,0,B|152:161|95:154|83:137|74:100|117:104|237:85|222:171|311:134|318:67|352:224,1,390
400,288,17498,2,0,B|317:294|345:337|282:337|364:381|258:327|162:368|237:313|144:288,1,260
128,192,19135,5,2
176,160,19407,1,0
224,192,19680,1,0
304,112,20225,1,2
336,160,20498,1,0
368,208,20771,1,0
256,256,21316,6,2,B|160:256,2,65
256,336,22407,2,6,B|160:336,1,65
128,320,22953,1,0
96,272,23225,1,0
144,240,23498,1,2
256,208,24044,6,6,B|416:208,2,130
240,288,25680,2,0,B|212:366|112:320,2,130
240,288,27316,1,6
256,224,27589,1,2
320,224,27862,5,0
320,112,28407,1,0
256,112,28680,5,2
176,192,29225,1,2
256,272,29771,1,2
336,192,30316,1,2
288,304,30862,5,0
176,304,31407,1,0
176,192,31953,1,0
352,224,32771,1,0
384,176,33044,5,2
288,112,33589,1,2
192,176,34135,1,2
96,112,34680,1,2
48,144,34953,1,4
80,192,35225,1,0
192,224,35771,1,0
256,224,36044,5,2
256,160,36316,1,0
304,192,36589,1,2
416,112,45862,5,0
416,192,46271,1,0
416,272,46680,1,0
304,272,47226,1,2
240,272,47498,5,0
128,272,48044,1,2
128,192,48453,1,0
128,112,48862,1,0
240,112,49407,1,0
304,112,49680,5,0
304,224,50226,1,0
384,224,50635,1,0
384,304,51044,1,0
272,304,51589,1,2
208,304,51862,5,0
96,304,52407,1,0
96,224,52816,1,2
96,144,53226,1,0
192,80,53771,2,6,B|288:80,1,65
320,80,54316,1,0
384,80,54589,1,2
384,160,54998,1,2
304,160,55407,1,6
192,160,55953,5,2
128,160,56226,1,0
128,224,56498,1,2
160,272,56771,2,4,B|256:272,1,65
288,272,57316,2,4,B|384:272,1,65
368,208,57862,5,2
304,208,58135,2,2,B|208:208,1,65
176,208,58680,2,2,B|80:208,1,65
144,160,59226,2,0,B|198:109|288:160,1,130
336,176,60044,5,4
400,192,60316,1,2
384,256,60589,1,4
320,272,60862,1,0
272,224,61135,2,4,B|240:192|208:256,1,65
192,304,61680,1,2
224,352,61953,1,0
288,352,62226,6,4,B|320:352|352:320|320:288,1,65
288,272,62771,1,0
320,224,63044,1,2
368,192,63316,1,0
288,112,63862,6,2,B|256:80|224:144,1,65
208,176,64407,1,2
256,272,64953,5,0
256,208,65226,2,4,B|256:80,2,97.5
256,272,66316,1,0
288,320,66589,1,2
400,272,67135,1,4
384,224,67407,1,2
336,192,67680,5,2
224,192,68226,1,2
112,224,68771,1,0
160,272,69044,5,2
224,272,69316,1,2
160,176,69862,2,4,B|256:176,1,65
288,176,70407,2,4,B|288:272,2,65
336,144,71226,1,2
384,176,71498,2,4,B|384:240|328:240,2,65
336,144,72316,5,0
304,192,72589,1,2
256,96,73135,1,0
256,160,73407,1,0
256,224,73680,1,4
160,144,74226,2,2,B|96:144|95:200|95:200,1,65
112,224,74771,1,0
112,224,75044,1,2
208,288,75589,5,0
272,288,75862,1,4
336,288,76135,1,2
384,240,76407,1,0
304,144,76953,1,2
240,128,77226,1,2
128,128,77771,5,2
128,192,78044,2,4,B|128:256|176:256,1,65
208,256,78589,1,2
288,240,78998,5,0
352,176,79407,2,4,B|256:176,1,65
256,128,79953,1,0
192,128,80226,1,0
96,128,80771,1,0
96,192,81044,5,0
96,256,81316,1,2
96,256,81589,2,0,B|160:256|160:208,2,65
96,256,82407,1,0
96,144,82953,5,0
96,80,83226,1,0
160,80,83498,1,0
176,144,83771,2,0,B|144:208|208:176,3,65
272,96,85135,6,2,B|176:96,1,65
192,144,85680,2,0,B|288:144,1,65
272,192,86226,2,4,B|368:192,1,65
320,240,86771,2,0,B|224:240,1,65
272,288,87316,2,2,B|176:288,1,65
224,336,87862,2,0,B|320:336,1,65
352,336,88407,5,0
416,336,88680,1,0
432,272,88953,2,0,B|400:240|352:272,1,65
320,288,89498,1,2
256,192,106953,5,2
256,192,107225,1,0
256,288,108044,2,0,B|256:384,2,65
256,240,108862,1,0
256,192,109135,5,2
256,192,109407,1,0
256,96,110225,2,0,B|256:0,2,65
256,144,111044,1,0
208,176,111316,5,2
144,176,111589,2,4,B|144:272,1,65
144,304,112135,2,0,B|144:336|208:336,2,65
192,272,112953,2,2,B|288:272,1,65
304,224,113498,5,2
368,224,113771,2,4,B|368:128,1,65
368,96,114316,2,0,B|368:64|304:64,2,65
320,144,115135,2,2,B|224:144,1,65
192,144,115680,5,2
288,224,116225,1,0
288,224,116635,2,0,B|352:224|352:160,1,97.5
208,128,117589,5,0
160,160,117862,2,2,B|160:224|224:192,1,65
256,208,118407,1,0
320,208,118680,2,2,B|421:208|384:112,1,130
208,128,120044,5,0
144,128,120316,1,0
144,192,120589,2,0,B|144:256|208:256,2,97.5
208,192,121680,2,0,B|240:192|272:192|272:224,1,65
272,208,122225,2,0,B|336:208|336:272,2,97.5
272,208,123316,1,2
304,160,123589,1,2
240,160,123862,1,2
208,208,124135,1,0
240,256,124407,5,0
304,256,124680,1,0
368,256,124953,1,0
416,208,125225,1,0
368,160,125498,1,2
304,160,125771,1,0
144,144,126316,5,2
96,192,126589,1,0
112,256,126862,1,0
176,256,127135,1,0
240,240,127407,1,0
304,240,127680,1,0
304,304,127953,5,0
240,304,128225,1,0
176,304,128498,1,0
144,240,128771,6,4,B|208:176,1,65
208,192,129316,2,0,B|272:256,1,65
288,240,129862,1,0
336,208,130135,1,2
384,240,130407,1,0
352,288,130680,5,0
288,304,130953,1,0
240,272,131225,2,0,B|240:176,1,65
240,144,131771,2,2,B|240:48,1,65
240,48,132316,2,2,B|272:144,1,65
272,160,132862,2,2,B|272:256,1,65
304,288,133407,5,2
368,288,133680,1,0
400,240,133953,1,0
384,176,134225,1,0
336,144,134498,1,0
272,160,134771,1,0
240,208,135044,5,0
176,208,135316,1,4
208,256,135589,1,2
240,304,135862,1,4
304,296,136135,1,2
352,256,136407,1,0
352,192,136680,2,2,B|320:112,1,65
272,144,137225,2,0,B|256:240,1,65
256,288,137771,5,2
192,288,138044,1,0
128,272,138316,1,0
144,208,138589,1,0
192,176,138862,1,0
256,272,139407,5,0
320,272,139680,1,4
288,224,139953,1,2
240,192,140225,1,4
192,224,140498,1,2
192,160,140771,1,0
224,96,141044,5,2
224,96,141316,1,2
224,96,141589,1,2
384,160,158771,6,0,B|288:160,1,65
256,160,159316,2,0,B|160:160|152:224|160:256,1,130
192,272,160135,2,0,B|256:304|320:272|320:272,1,130
256,160,161226,1,0
240,96,161498,2,0,B|342:80|368:192,1,130
368,208,162316,2,0,B|360:266|272:272,1,65
272,272,162862,1,0
224,224,163135,5,0
176,256,163407,2,0,B|128:304,1,65
160,128,164498,1,0
272,128,165044,1,0
336,128,165316,5,2
352,192,165589,1,0
352,256,165862,1,4
304,224,166135,1,0
256,192,166407,1,2
208,224,166680,1,0
160,192,166953,5,2
96,192,167226,1,0
96,256,167498,2,0,B|160:320,1,65
208,304,168044,2,0,B|272:368|320:320,2,97.5
208,208,169407,5,0
256,240,169680,1,0
304,192,169953,1,0
352,144,170226,2,0,B|393:76|288:48,2,130
256,208,171862,2,2,B|256:304,1,65
192,272,172407,1,0
64,272,173362,1,0
128,320,173771,1,2
192,320,174044,1,2
256,320,174316,1,0
320,320,174589,5,6
384,288,174862,1,0
448,320,175135,1,6
448,256,175407,1,0
384,224,175680,5,6
320,256,175953,1,0
256,256,176226,1,6
256,192,176498,1,0
176,160,176771,5,6
