osu file format v6

[General]
AudioFilename: The Who - Pinball Wizard .mp3
AudioLeadIn: 1004
PreviewTime: -1
Countdown: 1
SampleSet: Normal
StackLeniency: 0.7
Mode: 0
LetterboxInBreaks: 1

[Editor]
Bookmarks: 16368,24307,39576,43607,54356,67060,78908,91001,98330,106270,109690,121661,126180,140838,147679,153298,160627
DistanceSpacing: 0.800000011920929
BeatDivisor: 4
GridSize: 32

[Metadata]
Title:Pinball Wizard
Artist:The Who
Creator:MyGameName
Version:Normal
Source:
Tags:

[Difficulty]
HPDrainRate:6
CircleSize:4
OverallDifficulty:3
SliderMultiplier:0.8
SliderTickRate:1

[Events]
//Background and Video events
0,0,"The Who - Tommy.jpg"
//Break Periods
2,48204,55237
2,71657,77957
2,115020,121076
2,130899,140742
2,147390,148804
//Storyboard Layer 0 (Background)
//Storyboard Layer 1 (Fail)
//Storyboard Layer 2 (Pass)
//Storyboard Layer 3 (Foreground)
//Storyboard Sound Samples
//Background Colour Transformations
3,100,0,0,0

[TimingPoints]
0,488.599348534202,4,1,0,100,1,0

[HitObjects]
35,31,244,1,0
96,32,2198,1,0
160,32,4153,5,0
224,32,6107,1,0
288,32,7939,5,0
352,32,9894,1,0
416,32,11848,5,0
476,32,13680,5,0
480,96,15635,1,0
416,96,17467,1,0
353,95,18078,1,0
288,96,18811,1,10
256,96,19055,1,10
224,96,19299,5,10
160,96,20032,1,0
96,96,20765,1,10
64,96,21009,1,10
32,96,21254,1,10
32,160,21986,1,0
96,160,22597,1,10
128,160,22842,1,10
160,160,23086,1,10
96,229,24796,6,0,B|249:226|469:8|466:308|26:289|408:273,1,540
349,317,28705,6,0,B|291:146|130:35|39:46|50:240|95:369|141:217|141:216,1,520
96,225,32491,6,0,B|238:226|399:79|446:357|62:249|61:249,1,480
256,128,36400,1,0
256,320,37255,1,0
160,224,38232,1,0
352,224,39087,1,0
256,257,40187,5,0
256,127,41042,1,0
191,192,42141,1,0
319,192,42996,1,0
160,160,44096,5,10
192,160,44462,1,10
224,160,44828,1,10
256,160,45195,1,10
352,160,46050,1,4
256,160,47027,1,4
192,160,47516,1,4
128,160,48004,1,4
166,154,56677,5,0
222,98,57776,1,0
289,156,58631,1,0
224,224,59731,5,0
224,128,60464,1,0
224,96,60830,1,0
96,96,61563,1,0
96,160,62052,1,0
96,192,62418,1,0
96,288,63517,5,0
160,288,64006,1,0
192,288,64250,1,0
192,288,64372,1,0
224,288,64617,1,0
192,192,65228,5,0
256,192,65472,1,0
256,128,65716,1,0
320,128,65960,1,0
320,192,66205,1,0
384,192,66449,1,0
384,288,67426,5,10
352,288,67793,1,10
320,288,68159,1,10
288,288,68526,1,10
192,288,69381,1,4
192,192,70358,1,4
256,192,70846,1,4
352,192,71457,1,4
257,193,79397,5,0
325,193,79885,1,0
320,256,80374,1,0
288,256,80618,1,0
224,256,81107,1,0
224,128,82328,1,0
130,192,83306,5,0
127,256,83794,1,0
195,256,84283,1,0
224,256,84527,1,0
224,192,85260,1,0
224,96,86115,1,0
224,0,87214,1,0
126,31,91245,5,0
128,96,91978,1,0
128,192,92956,2,0,B|128:288,1,80
128,320,93933,1,0
192,320,94421,1,0
288,320,95154,1,0
288,224,95887,1,0
160,224,97109,1,0
160,128,99063,5,0
224,128,99796,1,0
320,128,100773,1,0
320,224,101506,1,0
288,224,101750,1,0
256,224,101995,1,0
256,128,102972,5,0
256,224,103949,1,0
256,256,104193,1,0
160,256,105048,1,0
160,160,105903,1,0
256,190,106881,5,0
352,192,107980,1,0
352,96,108835,1,0
288,96,109324,1,0
256,96,109568,1,0
224,96,109812,1,0
288,192,110789,5,10
320,192,111156,1,10
352,192,111522,1,10
384,192,111889,1,10
384,96,112866,1,4
256,96,113843,1,4
192,96,114332,1,4
128,96,114820,1,4
256,191,122516,5,0
288,192,122760,1,0
384,192,123249,1,0
384,96,123737,1,0
256,96,124714,5,0
225,97,124959,1,0
193,97,125203,1,0
161,97,125447,1,0
129,97,125692,1,0
128,224,126791,2,0,B|224:224,8,80
256,208,142182,12,0,143648
256,208,145724,12,0,147190
256,192,150244,5,0
192,192,150732,1,0
160,192,150977,1,0
160,96,151710,1,0
224,96,152198,1,0
288,96,152687,1,0
288,224,153542,5,0
192,224,154153,1,0
160,224,154519,1,0
160,96,155618,1,0
192,96,155863,1,0
224,96,156107,1,0
256,96,156351,1,0
256,96,156473,1,0
227,159,157573,5,0
288,160,158061,1,0
320,160,158184,1,0
384,160,158428,1,0
384,32,159527,1,0
320,32,159894,1,0
288,32,160138,1,0
256,32,160382,1,0
32,64,161359,5,10
64,64,161726,1,10
96,64,162092,1,10
160,64,162581,1,10
160,160,163314,1,4
160,288,164413,1,4
224,288,164902,1,4
288,288,165390,1,14
