osu file format v4

[General]
AudioFilename: EBA Y.M.C.A.mp3
AudioLeadIn: 0
AudioHash: 7bff0462653f31056e8cfe9d6740c1e6
PreviewTime: -1
SampleSet: Normal

[Metadata]
Title:Y.M.C.A.
Artist:The Village People
Creator:shinn
Version:Normal

[Difficulty]
HPDrainRate:5
CircleSize:5
OverallDifficulty:5
SliderMultiplier: 1.4
SliderTickRate: 3

[Events]
2,34650,52944
2,83433,99171
3,0,163,162,255

[TimingPoints]
475,451,4,1,0

[HitObjects]
32,160,19567,1,0,
32,160,19717,1,0,
128,160,21070,2,0,C|128:160|224:64|320:192|448:64,1,466.666666666667
480,192,22874,1,0,
480,192,23025,1,0,
480,160,23476,5,0,
480,160,23626,1,0,
384,160,24979,2,0,C|384:160|288:64|192:192|64:64,1,466.666666666667
64,64,26633,1,0,
64,64,26784,1,0,
32,160,27234,5,0,
32,160,27384,1,0,
128,160,28737,2,0,C|128:160|224:64|320:192|448:64,1,466.666666666667
480,192,30541,1,0,
480,192,30692,1,0,
256,64,31143,5,0,
256,192,31894,1,0,
256,352,32646,1,0,
192,192,33247,1,0,
320,192,33999,1,0,
256,224,34450,1,0,
96,128,54144,6,0,C|96:128|256:0|448:160,1,420
256,160,55948,1,0,
96,256,58052,6,0,C|96:256|256:384|448:224,1,420
256,224,59856,1,0,
256,192,60157,1,0,
32,160,61209,6,0,C|32:160|160:32|256:192|384:32|480:224,1,793.333333333333
224,256,64216,1,0,
288,256,64517,1,0,
32,224,65719,6,0,C|32:224|160:352|256:192|384:352|480:160,1,793.333333333333
224,128,68726,1,0,
288,128,69027,1,0,
96,128,69478,6,0,C|96:128|256:0|448:160,1,420
256,160,71282,1,0,
96,256,73537,6,0,C|96:256|256:384|448:224,1,420
256,224,75341,1,0,
256,160,75491,1,0,
473,210,77295,6,0,C|473:210|384:32|256:192|160:32|32:160,1,793.333333333333
32,224,80602,6,0,C|32:224|160:352|256:192|384:352|480:160,1,793.333333333333
32,160,100296,5,0,
32,160,100446,1,0,
128,160,102250,2,0,C|128:160|224:64|320:192|448:64,1,466.666666666667
480,160,104205,5,0,
480,160,104355,1,0,
384,160,106009,2,0,C|384:160|288:64|192:192|64:64,1,466.666666666667
32,160,107963,5,0,
32,160,108113,1,0,
128,160,109767,2,0,C|128:160|224:64|320:192|448:64,1,466.666666666667
256,64,111721,5,0,
256,192,112472,1,0,
256,352,113224,1,0,
192,192,113825,1,0,
320,192,114577,1,0,
256,224,115028,1,0,
32,160,115630,5,0,
32,160,115780,1,0,
128,160,117584,2,0,C|128:160|224:64|320:192|448:64,1,466.666666666667
480,160,119539,5,0,
480,160,119689,1,0,
384,160,121343,2,0,C|384:160|288:64|192:192|64:64,1,466.666666666667
32,160,123296,5,0,
32,160,123447,1,0,
128,160,125101,2,0,C|128:160|224:64|320:192|448:64,1,466.666666666667
256,64,127206,5,0,
256,192,127957,1,0,
256,352,128709,1,0,
192,192,129310,1,0,
320,192,130062,1,0,
256,224,130513,1,0,
192,64,130964,6,0,C|192:64|352:64,4,140
96,128,134873,6,0,C|96:128|256:0|448:160,1,420
256,160,136526,1,0,
96,256,138781,6,0,C|96:256|256:384|448:224,1,420
256,224,140435,1,0,
256,160,140886,1,0,
473,210,142389,6,0,C|473:210|384:32|256:192|160:32|32:160,1,793.333333333333
32,224,146298,6,0,C|32:224|160:352|256:192|384:352|480:160,1,793.333333333333
96,128,150207,6,0,C|96:128|256:0|448:160,1,420
256,160,151860,1,0,
96,256,154115,6,0,C|96:256|256:384|448:224,1,420
256,224,155769,1,0,
256,160,156220,1,0,
