osu file format v4

[General]
AudioFilename: 12_y[1].m.c.a..mp3
AudioLeadIn: 0
AudioHash: 7bff0462653f31056e8cfe9d6740c1e6
PreviewTime: -1
SampleSet: Normal
EditorBookmarks: 34960,84400,115600

[Metadata]
Title:Y.M.C.A.
Artist:The Village People
Creator:Rolled
Version:Sweatin'

[Difficulty]
HPDrainRate:6
CircleSize:5
OverallDifficulty:6
SliderMultiplier: 1.7
SliderTickRate: 2

[Events]
//Background and Video events
0,-1,"captain_vectorized.png"
//Break Periods
2,34680,53110
2,84119,99190
2,115320,126070
//Storyboard Layer 0 (Background)
//Storyboard Layer 1 (Failing)
//Storyboard Layer 2 (Passing)
//Storyboard Layer 3 (Foreground)
//Storyboard Sound Samples
//Background Colour Transformations
3,100,0,0,0

[TimingPoints]
400,480,4,1,0

[Colours]
Combo1 : 255,0,0
Combo2 : 251,153,45
Combo3 : 0,255,0
Combo4 : 0,0,255

[HitObjects]
216,32,19600,1,0
296,32,19840,1,0
16,200,21040,1,0
64,152,21280,1,0
112,200,21520,2,0,B|112:200|175:123|204:215|264:257|289:163|360:168,1,255
472,144,22720,1,0
472,224,22960,1,0
296,352,23440,5,0
216,352,23680,1,0
496,184,24880,1,0
448,232,25120,1,0
400,184,25360,2,0,B|400:184|337:261|308:169|248:127|223:221|152:216,1,255
40,240,26560,1,0
40,160,26800,1,0
296,24,27280,5,0
216,24,27520,1,0
32,224,28720,1,0
96,160,28960,1,0
152,232,29200,1,0
208,160,29440,1,0
264,232,29680,1,0
320,160,29920,2,0,B|320:160|419:133|480:216,1,170
472,288,30640,1,0
360,264,31120,6,0,B|360:264|287:322|211:322|112:256,3,255
256,160,34000,1,0
256,40,34480,1,0
416,56,54160,6,0,B|416:56|309:0|176:0|88:32|64:88,1,340
256,112,55600,1,0
256,200,55840,1,0
472,272,56320,2,0,B|472:272|432:325|378:352|296:336,1,170
272,288,57040,1,0
224,224,57280,1,0
176,160,57520,1,0
128,104,57760,1,0
96,32,58000,6,0,B|96:32|203:-24|336:-24|424:8|448:64,1,340
256,72,59440,1,0
256,144,59680,1,0
256,296,60160,1,0
112,216,61360,5,0
56,264,61600,1,0
32,336,61840,1,0
104,336,62080,1,0
176,336,62320,1,0
248,336,62560,1,0
400,216,63280,1,0
456,264,63520,1,0
480,336,63760,1,0
408,336,64000,1,0
336,336,64240,1,0
264,336,64480,1,0
248,96,65200,5,0
320,96,65440,1,0
376,48,65680,2,0,B|376:48|306:-4|218:-4|120:48,2,255
320,96,67360,1,0
200,304,67840,5,0
256,352,68080,1,0
312,304,68320,1,0
256,256,68560,2,0,B|256:256|256:72,1,170
96,56,69520,6,0,B|96:56|203:0|336:0|424:32|448:88,1,340
256,112,70960,1,0
256,192,71200,1,0
40,272,71680,2,0,B|40:272|80:325|134:352|216:336,1,170
240,288,72400,1,0
288,224,72640,1,0
336,160,72880,1,0
384,104,73120,1,0
416,32,73360,6,0,B|416:32|309:-24|176:-24|88:8|64:64,1,340
256,72,74800,1,0
256,144,75040,1,0
256,296,75520,1,0
400,216,76720,5,0
456,264,76960,1,0
480,336,77200,1,0
408,336,77440,1,0
336,336,77680,1,0
264,336,77920,1,0
112,216,78640,1,0
56,264,78880,1,0
32,336,79120,1,0
104,336,79360,1,0
176,336,79600,1,0
248,336,79840,1,0
264,96,80560,5,0
192,96,80800,1,0
136,48,81040,2,0,B|136:48|206:-4|294:-4|392:48,2,255
96,192,82960,2,0,B|96:192|203:256|327:256|456:160,1,340
256,16,100240,5,0
256,96,100480,1,0
40,16,101680,1,0
88,72,101920,1,0
24,112,102160,2,0,B|24:112|139:184|-36:296|120:352,1,255
256,280,103360,1,0
256,176,103720,1,0
256,24,104080,5,0
256,96,104320,1,0
472,24,105520,1,0
424,80,105760,1,0
488,120,106000,2,0,B|488:120|373:192|548:304|392:360,1,255
256,280,107200,1,0
256,176,107560,1,0
256,24,107920,5,0
256,96,108160,1,0
32,224,109360,1,0
96,160,109600,1,0
152,232,109840,1,0
208,160,110080,1,0
264,232,110320,1,0
320,160,110560,2,0,B|320:160|419:133|480:216,1,170
472,288,111280,1,0
360,264,111760,6,0,B|360:264|287:322|211:322|112:256,3,255
256,160,114640,1,2
256,40,115120,1,2
256,8,127120,5,0
480,168,127840,1,0
32,168,128560,1,0
256,360,129280,1,0
176,168,130000,1,0
344,168,130480,1,0
400,32,130960,5,0
128,32,131440,1,0
256,144,131920,1,0
400,256,132400,1,0
136,256,132880,1,0
200,304,133120,5,0
256,352,133360,1,0
312,304,133600,1,0
256,256,133840,2,0,B|256:256|256:72,1,170
96,56,134800,6,0,B|96:56|203:0|336:0|424:32|448:88,1,340
256,112,136240,1,0
256,200,136480,1,0
40,272,136960,2,0,B|40:272|80:325|134:352|216:336,1,170
240,288,137680,1,0
288,224,137920,1,0
336,160,138160,1,0
384,104,138400,1,0
416,32,138640,6,0,B|416:32|309:-24|176:-24|88:8|64:64,1,340
256,72,140080,1,0
256,144,140320,1,0
256,296,140800,1,0
400,216,142000,5,0
456,264,142240,1,0
480,336,142480,1,0
408,336,142720,1,0
336,336,142960,1,0
264,336,143200,1,0
112,216,143920,1,0
56,264,144160,1,0
32,336,144400,1,0
104,336,144640,1,0
176,336,144880,1,0
248,336,145120,1,0
264,96,145840,5,0
192,96,146080,1,0
136,48,146320,2,0,B|136:48|206:-4|294:-4|392:48,2,255
176,96,148000,1,0
312,304,148480,5,0
256,352,148720,1,0
200,304,148960,1,0
256,256,149200,2,0,B|256:256|256:72,1,170
416,56,150160,6,0,B|416:56|309:0|176:0|88:32|64:88,1,340
256,112,151600,1,0
256,192,151840,1,0
472,272,152320,2,0,B|472:272|432:325|378:352|296:336,1,170
272,288,153040,1,0
224,224,153280,1,0
176,160,153520,1,0
128,104,153760,1,0
96,32,154000,6,0,B|96:32|203:-24|336:-24|424:8|448:64,1,340
256,72,155440,1,0
256,144,155680,1,0
256,304,156160,1,0
200,192,157360,5,0
128,192,157600,1,0
56,192,157840,2,0,B|56:192|56:84|136:3|280:32,2,255
456,192,159760,2,0,B|456:192|456:84|376:3|232:32,2,255
256,192,161680,12,0,164560
