osu file format v4

[General]
AudioFilename: 12_y[1].m.c.a..mp3
AudioLeadIn: 0
AudioHash: 7bff0462653f31056e8cfe9d6740c1e6
PreviewTime: -1
SampleSet: Normal
EditorBookmarks: 34960,84400,115600

[Metadata]
Title:Y.M.C.A.
Artist:The Village People
Creator:Rolled
Version:Cruisin'

[Difficulty]
HPDrainRate:6
CircleSize:4
OverallDifficulty:5
SliderMultiplier: 1.5
SliderTickRate: 2

[Events]
//Background and Video events
0,-1,"captain_vectorized.png"
//Break Periods
2,34680,53110
2,84119,99190
2,115320,126070
//Storyboard Layer 0 (Background)
//Storyboard Layer 1 (Failing)
//Storyboard Layer 2 (Passing)
//Storyboard Layer 3 (Foreground)
//Storyboard Sound Samples
//Background Colour Transformations
3,100,0,0,0

[TimingPoints]
400,480,4,1,0

[Colours]
Combo1 : 255,0,0
Combo2 : 251,153,45
Combo3 : 0,255,0
Combo4 : 0,0,255

[HitObjects]
216,32,19600,1,0
296,32,19840,1,0
48,200,21040,2,0,C|48:200|115:159|184:202|262:159|329:202|384:168,1,375
480,176,22720,1,0
480,176,22960,1,0
288,352,23440,5,0
224,352,23680,1,0
464,184,24880,2,0,C|464:184|397:225|328:182|250:225|183:182|128:216,1,375
32,192,26560,1,0
32,192,26800,1,0
296,32,27280,5,0
216,32,27520,1,0
48,200,28720,2,0,C|48:200|115:159|184:202|262:159|329:202|384:168,1,375
480,192,30400,1,0
480,192,30640,1,0
400,88,31120,5,0
256,16,31840,1,0
112,88,32560,1,0
256,184,33280,1,0
336,328,34000,1,0
184,328,34480,1,0
400,80,54160,6,0,B|400:80|288:16|184:24|104:96,1,300
256,184,55600,1,0
256,184,55840,1,0
40,192,56320,1,0
40,192,56560,1,0
112,304,57040,1,0
256,304,57520,1,0
400,80,58000,6,0,B|400:80|288:16|184:24|104:96,1,300
256,184,59440,1,0
256,184,59680,1,0
256,336,60160,1,0
344,192,61360,5,0
472,192,61840,2,0,B|472:192|472:120|435:32|346:20|320:32,1,225
168,192,63280,1,0
40,192,63760,2,0,B|40:192|40:120|77:32|166:20|192:32,1,225
344,192,65200,5,0
472,192,65680,2,0,B|472:192|472:120|435:32|346:20|320:32,2,225
256,192,67840,1,0
256,192,68080,1,0
184,304,68560,1,0
320,304,69040,1,0
112,80,69520,6,0,B|112:80|224:16|328:24|408:96,1,300
256,184,70960,1,0
256,184,71200,1,0
472,192,71680,1,0
472,192,71920,1,0
400,304,72400,1,0
256,304,72880,1,0
112,80,73360,6,0,B|112:80|224:16|328:24|408:96,1,300
256,184,74800,1,0
256,184,75040,1,0
256,336,75520,1,0
168,192,76720,5,0
40,192,77200,2,0,B|40:192|40:120|77:32|166:20|192:32,1,225
344,192,78640,1,0
472,192,79120,2,0,B|472:192|472:120|435:32|346:20|320:32,1,225
216,200,80560,5,0
32,200,81040,2,0,B|32:200|52:307|99:360|195:372|280:372|392:361|459:306|480:184,1,600
256,32,100240,5,0
256,104,100480,1,0
40,32,101680,2,0,C|40:32|72:88|32:156|76:237|38:301|64:360,1,375
256,184,103360,1,0
256,184,103600,1,0
256,32,104080,5,0
256,104,104320,1,0
472,32,105520,2,0,C|472:32|440:88|480:156|436:237|474:301|448:360,1,375
256,184,107200,1,0
256,184,107440,1,0
216,32,107920,5,0
296,32,108160,1,0
48,200,109360,2,0,C|48:200|115:159|184:202|262:159|329:202|384:168,1,375
480,192,111040,1,0
480,192,111280,1,0
400,296,111760,5,0
256,368,112480,1,0
112,296,113200,1,0
256,208,113920,1,0
336,48,114640,1,0
184,48,115120,1,0
112,296,127120,5,0
256,368,127840,1,0
400,296,128560,1,0
256,200,129280,1,0
336,48,130000,1,0
184,48,130480,1,0
256,136,130960,5,0
256,136,131440,1,0
256,208,131920,1,0
256,208,132400,1,0
256,280,132880,1,0
112,80,134800,6,0,B|112:80|224:16|328:24|408:96,1,300
256,184,136240,1,0
256,184,136480,1,0
40,192,136960,1,0
40,192,137200,1,0
112,304,137680,1,0
256,304,138160,1,0
400,80,138640,6,0,B|400:80|288:16|184:24|104:96,1,300
256,184,140080,1,0
256,184,140320,1,0
256,336,140800,1,0
344,192,142000,5,0
472,192,142480,2,0,B|472:192|472:120|435:32|346:20|320:32,1,225
168,192,143920,1,0
40,192,144400,2,0,B|40:192|40:120|77:32|166:20|192:32,1,225
344,192,145840,5,0
472,192,146320,2,0,B|472:192|472:120|435:32|346:20|320:32,2,225
256,192,148480,1,0
256,192,148720,1,0
184,304,149200,1,0
320,304,149680,1,0
400,80,150160,6,0,B|400:80|288:16|184:24|104:96,1,300
256,184,151600,1,0
256,184,151840,1,0
472,192,152320,1,0
472,192,152560,1,0
400,304,153040,1,0
256,304,153520,1,0
112,80,154000,6,0,B|112:80|224:16|328:24|408:96,1,300
256,184,155440,1,0
256,184,155680,1,0
256,336,156160,1,0
168,192,157360,5,0
40,192,157840,2,0,B|40:192|40:120|77:32|166:20|192:32,1,225
344,192,159280,1,0
472,192,159760,2,0,B|472:192|472:120|435:32|346:20|320:32,1,225
256,192,161680,12,0,165040
