osu file format v4

[General]
AudioFilename: 12_y[1].m.c.a..mp3
AudioLeadIn: 0
AudioHash: 7bff0462653f31056e8cfe9d6740c1e6
PreviewTime: -1
SampleSet: Normal

[Metadata]
Title:Y.M.C.A.
Artist:The Village People
Creator:Rolled
Version:Breezin'

[Difficulty]
HPDrainRate:3
CircleSize:4
OverallDifficulty:3
SliderMultiplier: 1.4
SliderTickRate: 2

[Events]
//Background and Video events
0,-1,"captain_vectorized.png"
//Break Periods
2,34680,52720
2,83160,98800
2,115320,125680
//Storyboard Layer 0 (Background)
//Storyboard Layer 1 (Failing)
//Storyboard Layer 2 (Passing)
//Storyboard Layer 3 (Foreground)
//Storyboard Sound Samples
//Background Colour Transformations
3,100,0,0,0

[TimingPoints]
400,480,4,1,0

[Colours]
Combo1 : 255,0,0
Combo2 : 251,153,45
Combo3 : 0,255,0
Combo4 : 0,0,255

[HitObjects]
256,40,19600,1,0
56,192,21040,1,0
168,192,21520,2,0,B|168:192|236:156|329:241|400:176,1,210
256,344,23440,5,0
456,192,24880,1,0
344,192,25360,2,0,B|344:192|276:228|183:143|112:208,1,210
256,40,27280,5,0
56,192,28720,1,0
168,192,29200,2,0,B|168:192|236:156|329:241|400:176,1,210
256,360,31120,5,0
40,192,31840,1,0
256,24,32560,1,0
472,192,33280,1,0
256,128,34000,1,0
256,232,34480,1,0
488,88,54160,6,0,B|488:88|328:16|184:16|48:56|0:104,1,490
256,104,56560,1,0
176,216,57040,1,0
336,216,57520,1,0
400,328,58000,6,0,B|400:328|254:360|96:320,1,280
256,256,59440,1,0
256,176,59680,1,0
360,56,61840,6,0,B|360:56|288:88|200:8|128:64,1,210
168,312,63760,2,0,B|168:312|240:280|328:360|400:304,1,210
480,200,65680,6,0,B|480:200|440:88|352:40|232:24|144:24|96:56,1,420
32,192,68080,1,0
144,192,68560,1,0
256,192,69040,1,0
32,88,69520,6,0,B|32:88|192:16|336:16|472:56|520:104,1,490
256,112,71920,1,0
176,216,72400,1,0
336,216,72880,1,0
400,312,73360,6,0,B|400:312|254:360|104:304,1,280
256,256,74800,1,0
256,176,75040,1,0
152,64,77200,6,0,B|152:64|224:96|312:16|384:72,1,210
344,280,79120,2,0,B|344:280|272:248|184:328|112:272,1,210
56,208,81040,6,0,B|56:208|80:88|160:24|208:-8|335:2|427:84|448:256,1,560
256,32,100240,5,0
88,32,101680,1,0
88,136,102160,2,0,B|88:136|120:200|56:264|88:344,1,210
256,32,104080,5,0
424,32,105520,1,0
424,136,106000,2,0,B|424:136|392:200|456:264|424:344,1,210
256,32,107920,5,0
48,192,109360,1,0
176,192,109840,2,0,B|176:192|256:149|358:230|424:168,1,210
256,360,111760,5,0
472,192,112480,1,0
256,24,113200,1,0
40,192,113920,1,0
256,128,114640,1,0
256,232,115120,1,0
456,192,127120,5,0
56,192,128560,1,0
256,32,130000,1,0
424,192,130960,5,0
344,264,131440,1,0
256,344,131920,1,0
176,264,132400,1,0
88,192,132880,1,0
24,88,134800,6,0,B|24:88|124:4|408:12|464:56|512:104,1,490
256,112,137200,1,0
336,216,137680,1,0
176,216,138160,1,0
120,312,138640,6,0,B|120:312|266:360|416:304,1,280
248,256,140080,1,0
248,176,140320,1,0
456,144,142000,5,0
360,72,142480,2,0,B|360:72|288:104|200:24|128:80,1,210
56,224,143920,1,0
160,288,144400,2,0,B|160:288|232:256|320:336|392:280,1,210
480,200,146320,6,0,B|480:200|440:88|352:40|232:24|144:24|96:56,1,420
32,192,148720,1,0
144,192,149200,1,0
256,192,149680,1,0
480,88,150160,6,0,B|480:88|320:16|176:16|40:56|-8:104,1,490
256,112,152560,1,0
176,216,153040,1,0
336,216,153520,1,0
400,312,154000,6,0,B|400:312|254:360|104:304,1,280
256,256,155440,1,0
256,176,155680,1,0
56,144,157360,5,0
152,72,157840,2,0,B|152:72|224:104|312:24|384:80,1,210
456,224,159280,1,0
352,288,159760,2,0,B|352:288|280:256|192:336|120:280,1,210
256,192,161200,12,0,165040
