osu file format v5

[General]
AudioFilename: The Veronicas - Untouched.mp3
AudioLeadIn: 0
PreviewTime: -1
Countdown: 1
SampleSet: Normal
StackLeniency: 0.7
Mode: 0
LetterboxInBreaks: 1
SkinPreference:Cartoon

[Metadata]
Title:Untouched
Artist:The Veronicas
Creator:tony111ster
Version:Normal
Source:
Tags:

[Difficulty]
HPDrainRate:5
CircleSize:5
OverallDifficulty:5
SliderMultiplier:1.4
SliderTickRate:1

[Events]
//Background and Video events
//Break Periods
//Storyboard Layer 0 (Background)
//Storyboard Layer 1 (Failing)
//Storyboard Layer 2 (Passing)
//Storyboard Layer 3 (Foreground)
//Storyboard Sound Samples
//Background Colour Transformations
3,100,194,242,174

[TimingPoints]
0,300,4,1,0,100,1,0

[Colours]
Combo1 : 215,84,40
Combo2 : 45,200,138
Combo3 : 213,32,176
Combo4 : 72,189,55

[HitObjects]
210,105,11900,5,10
289,112,12500,1,10
376,118,13300,1,10
378,231,14300,1,10
378,231,14500,1,10
216,245,15000,1,10
207,137,15600,1,10
314,124,16200,1,10
393,213,17000,1,10
393,213,17100,1,10
193,242,18400,5,10
331,123,19000,1,10
371,225,19700,1,10
371,225,19800,1,10
224,259,20300,1,10
206,141,21000,1,10
324,126,21600,1,10
336,238,22400,1,10
336,238,22500,1,10
96,166,23100,1,10
205,128,23700,1,10
359,116,24400,1,10
375,205,25100,1,10
375,205,25300,1,10
236,256,25800,1,10
208,146,26400,1,10
305,91,27200,1,10
364,181,27800,1,10
364,181,28000,1,10
281,232,28500,5,10
185,152,29000,1,10
224,65,29800,1,10
376,119,30500,1,10
376,119,30700,1,10
360,178,30900,1,10
268,192,31400,1,10
268,192,31600,1,10
169,177,32000,1,10
169,177,32200,1,10
212,273,32700,1,10
212,273,32800,1,10
212,273,33200,1,10
373,270,33700,5,10
383,147,34200,1,10
305,119,34600,1,10
188,104,34900,1,10
140,174,35300,1,10
148,243,35700,1,10
240,268,35900,1,10
254,167,36500,5,10
254,167,36700,1,10
254,167,36900,1,10
254,167,37100,1,10
362,160,37600,1,10
362,160,37800,1,10
362,160,38000,1,10
362,160,38100,1,10
382,278,38600,1,10
291,280,38900,1,10
209,262,39300,1,10
164,173,39700,1,10
170,118,40100,1,10
170,118,40200,1,10
170,118,40500,1,10
307,88,41000,1,10
337,164,41300,1,10
233,184,41700,1,10
236,261,42000,1,10
236,261,42400,1,10
236,261,42700,1,10
352,272,43100,1,10
352,272,43400,1,10
354,167,43700,1,10
354,167,44000,1,10
158,75,44400,6,10,B|318:73|212:184|212:184|289:401|191:166,6,420
364,132,50300,5,10
176,122,51700,1,10
211,228,52200,1,10
336,250,52500,1,10
336,250,53000,1,10
336,250,53200,1,10
363,121,53600,1,10
277,118,53900,1,10
277,118,54200,1,10
277,118,54600,1,10
174,109,54900,1,10
183,207,55200,1,10
183,207,55600,1,10
323,228,56000,1,10
323,228,56300,1,10
351,100,56600,1,10
351,100,57000,1,10
273,100,57300,1,10
271,182,57600,1,10
186,192,58000,1,10
159,122,58300,1,10
231,80,58700,1,10
315,58,59000,1,10
330,80,59500,1,10
340,196,59800,1,10
233,239,60300,1,10
185,143,60700,1,10
282,157,61000,1,10
371,131,61400,1,10
344,76,61700,1,10
272,84,62100,1,10
200,112,62400,1,10
192,175,62700,1,10
137,219,63000,1,10
221,287,63400,1,10
302,280,63800,1,10
185,68,66100,5,10
357,68,66800,1,10
352,168,67300,1,10
189,168,67800,1,10
189,168,68100,1,10
202,251,68500,1,10
312,274,68800,1,10
315,140,69500,1,10
222,93,70000,1,10
211,195,70500,1,10
211,195,70800,1,10
316,193,71200,1,10
328,89,71500,1,10
192,70,72200,1,10
117,244,72700,1,10
276,254,73200,1,10
276,254,73500,1,10
276,254,73900,1,10
258,47,74600,1,10
258,47,74900,1,10
141,77,75300,1,10
141,77,75400,1,10
166,192,75800,1,10
166,192,75900,1,10
345,175,76300,1,10
359,96,76700,1,10
449,120,77000,1,10
423,260,77600,1,10
251,246,78100,1,10
244,119,78700,1,10
244,119,79000,1,10
159,106,79300,1,10
136,225,79600,1,10
395,208,80300,5,10
376,60,80900,1,10
220,90,81300,1,10
220,90,81700,1,10
227,214,82000,1,10
227,214,82300,1,10
366,195,83000,1,10
344,57,83600,1,10
245,107,84000,1,10
245,107,84300,1,10
245,107,84700,1,10
313,236,85200,1,10
313,236,85300,1,10
121,236,85800,1,10
160,79,86100,1,10
300,132,86400,1,10
408,101,86800,1,10
400,172,87100,1,10
328,241,87400,1,10
238,111,89900,1,10
238,111,90100,1,10
238,111,90200,1,10
238,111,90400,1,10
238,111,90600,1,10
340,193,92600,1,10
340,193,92700,1,10
340,193,92900,1,10
340,193,93100,1,10
340,193,93200,1,10
180,187,94000,5,10
194,92,94600,1,10
284,95,95300,1,10
301,184,95900,1,10
165,100,98600,1,10
165,100,99000,1,10
174,218,99300,1,10
174,218,99700,1,10
334,243,100000,1,10
334,243,100400,1,10
324,126,100700,1,10
324,126,101000,1,10
181,130,101700,1,10
181,130,101900,1,10
181,130,102000,1,10
181,130,102200,1,10
311,195,102700,1,10
311,195,102900,1,10
311,195,103100,1,10
311,195,103200,1,10
318,106,103700,1,10
237,104,104000,1,10
237,104,104400,1,10
145,113,104800,1,10
145,113,105000,1,10
145,113,105400,1,10
146,211,105700,1,10
146,211,106000,1,10
403,226,106700,1,10
403,226,107100,1,10
358,102,107800,1,10
255,148,108100,1,10
255,148,108400,1,10
153,179,109200,1,10
361,247,109500,1,10
361,247,109800,1,10
361,247,110200,1,10
345,157,110600,1,10
345,157,110900,1,10
345,157,111200,1,10
225,136,111500,1,10
225,136,111700,1,10
225,136,111900,1,10
244,236,112200,1,10
336,233,112600,1,10
316,148,112900,1,10
316,148,113200,1,10
345,52,113500,1,10
286,54,114000,1,10
166,88,114200,1,10
137,165,114600,1,10
323,279,115100,5,10
344,152,115400,1,10
384,43,116000,1,10
282,103,116200,1,10
210,148,116500,1,10
130,164,116900,1,10
182,246,117200,1,10
313,233,117600,1,10
320,132,117900,1,10
282,76,118300,1,10
216,65,118600,1,10
147,108,118900,1,10
148,183,119300,1,10
216,236,119600,1,10
326,193,120000,1,10
315,86,120300,1,10
224,69,120700,1,10
160,84,121000,1,10
112,145,121400,1,10
258,263,122000,1,10
325,182,122400,1,10
306,102,122700,1,10
238,70,123000,1,10
156,133,123300,1,10
159,216,123700,1,10
216,269,124100,1,10
258,284,124400,1,10
325,195,124800,1,10
317,128,125100,1,10
272,103,125400,1,10
183,105,125800,1,10
160,169,126100,1,10
178,241,126400,1,10
178,241,126700,1,10
204,257,127100,1,10
404,212,127700,1,10
404,212,128100,1,10
386,127,128500,1,10
278,104,128800,1,10
85,121,129800,1,10
317,180,130500,1,10
317,180,130900,1,10
329,351,131300,1,10
192,228,131800,1,10
215,112,132400,1,10
295,110,132900,1,10
295,110,133200,1,10
327,213,133500,1,10
213,211,133900,1,10
208,97,134500,1,10
96,144,135100,1,10
200,226,135600,1,10
200,226,135900,1,10
313,227,136200,1,10
308,141,136600,1,10
212,115,137300,1,10
216,222,137800,1,10
328,224,138300,1,10
328,224,138700,1,10
328,224,139000,1,10
299,92,139900,1,10
299,92,140000,1,10
208,87,140400,1,10
196,174,141100,1,10
196,174,141400,1,10
196,174,141700,1,10
390,267,142000,1,10
197,277,142700,1,10
338,87,143800,1,10
338,87,144100,1,10
332,159,144400,1,10
186,193,144800,1,10
300,232,145400,1,10
213,100,145900,1,10
259,261,146500,1,10
259,261,146800,1,10
340,253,147100,1,10
340,142,147500,1,10
207,91,148100,1,10
184,207,148600,1,10
296,232,149200,1,10
296,232,149500,1,10
296,232,149900,1,10
299,123,150300,1,10
299,123,150500,1,10
205,140,150900,1,10
200,245,151500,1,10
301,246,151900,1,10
294,146,152400,1,10
132,97,153500,5,10
328,101,154100,1,10
225,203,156200,1,10
235,76,157000,1,10
360,165,159000,1,10
206,175,160400,1,10
311,109,162000,1,10
295,212,162400,1,10
187,108,166700,1,10
187,108,166900,1,10
187,108,167100,1,10
187,108,167300,1,10
314,115,167700,1,10
314,115,167900,1,10
314,115,168100,1,10
314,115,168300,1,10
189,192,169700,1,10
299,191,170400,1,10
208,108,172200,1,10
208,108,172400,1,10
208,108,172600,1,10
208,108,172700,1,10
322,117,173200,1,10
322,117,173400,1,10
322,117,173600,1,10
322,117,173800,1,10
287,214,174600,5,10
186,156,175200,1,10
187,254,175700,1,10
292,270,176200,1,10
292,270,176600,1,10
272,116,176900,1,10
259,64,177300,1,10
159,66,177900,1,10
160,204,178500,1,10
324,197,179000,1,10
324,197,179300,1,10
319,143,179700,1,10
241,138,180000,1,10
236,248,180600,1,10
241,138,181200,1,10
228,291,181700,1,10
228,291,182000,1,10
228,291,182400,1,10
356,213,183000,1,10
356,213,183400,1,10
188,210,183900,1,10
188,114,184300,1,10
188,114,184700,1,10
297,75,185400,1,10
276,198,186100,1,10
143,195,186600,1,10
176,82,187100,1,10
176,82,187500,1,10
231,179,187900,1,10
295,104,188200,1,10
364,181,188700,5,10
274,239,189300,1,10
156,259,189800,1,10
140,150,190200,1,10
168,88,190500,1,10
287,83,190800,1,10
319,223,191500,1,10
178,222,192100,1,10
231,117,192600,1,10
231,117,192900,1,10
231,117,193200,1,10
246,217,193800,1,10
308,212,194200,1,10
297,125,194500,1,10
291,59,194900,1,10
204,68,195300,1,10
168,207,196200,1,10
292,211,197000,1,10
288,99,197500,1,10
180,100,197900,1,10
180,100,198300,1,10
336,166,198900,5,10
330,70,199700,1,10
240,223,200100,1,10
166,148,200600,1,10
166,148,201000,1,10
284,146,201300,1,10
341,203,201700,1,10
180,248,202400,1,10
344,280,202900,1,10
368,131,203400,1,10
368,131,203700,1,10
368,131,204100,1,10
203,89,204800,1,10
203,89,205000,1,10
203,89,205100,1,10
286,160,205500,1,10
312,119,205700,1,10
257,66,206100,1,10
212,139,206500,1,10
178,215,206800,1,10
326,227,207200,1,10
400,80,207800,1,10
421,241,208300,1,10
302,316,208900,1,10
302,316,209100,1,10
293,156,209400,1,10
171,143,209800,1,10
188,257,210500,1,10
312,250,211000,1,10
326,101,211500,1,10
326,101,211800,1,10
169,97,212200,1,10
224,196,212500,1,10
350,185,213100,1,10
360,80,213800,1,10
276,92,214300,1,10
276,92,214600,1,10
276,92,214900,1,10
281,191,215500,5,10
179,171,215900,1,10
185,99,216200,1,10
255,140,216600,1,10
366,115,217000,1,10
421,160,217300,1,10
397,208,217700,1,10
255,72,228700,1,10
256,154,229400,1,10
264,220,230200,1,10
372,189,230800,1,10
357,100,231500,1,10
280,92,232200,1,10
217,92,232900,1,10
160,120,233600,1,10
160,180,234300,1,10
218,203,234900,1,10
274,219,235600,1,10
343,227,236300,1,10
391,157,236900,1,10
392,88,237600,1,10
330,55,238300,1,10
228,79,239000,1,10
411,197,240400,1,10
411,197,241000,1,10
197,195,241700,1,10
293,188,242400,1,10
306,81,243100,1,10
306,81,243800,1,10
170,80,244500,1,10
181,168,245000,1,10
353,179,245800,1,10
353,179,246500,1,10
243,88,247900,1,10
224,205,248600,1,10
326,196,249200,1,10
285,80,249800,1,10
285,80,250200,1,10
285,80,250600,1,10
285,80,250900,1,10
285,80,251300,1,10
285,80,251700,1,10
285,80,252100,1,10
