osu file format v5

[General]
AudioFilename: The Veronicas - Untouched.mp3
AudioLeadIn: 3000
PreviewTime: -1
Countdown: 3
SampleSet: Normal
StackLeniency: 0.7
Mode: 0
LetterboxInBreaks: 1

[Metadata]
Title:Untouched
Artist:The Veronicas
Creator:superfluffbunny
Version:Hard
Source:
Tags:

[Difficulty]
HPDrainRate:5
CircleSize:6
OverallDifficulty:6
SliderMultiplier:2.4
SliderTickRate:1

[Events]
//Background and Video events
//Break Periods
2,33441,42888
2,95810,107969
2,174111,183897
2,217329,237453
//Storyboard Layer 0 (Background)
//Storyboard Layer 1 (Failing)
//Storyboard Layer 2 (Passing)
//Storyboard Layer 3 (Foreground)
//Storyboard Sound Samples
//Background Colour Transformations
3,100,0,0,0

[TimingPoints]
23,338.964279155338,4,1,0,100

[Colours]
Combo1 : 0,0,160
Combo2 : 255,0,0
Combo3 : 255,255,0
Combo4 : 0,128,0

[HitObjects]
32,32,23,2,4,B|160:32,4,120
256,128,2734,2,4,B|256:0,4,120
480,32,5446,2,4,B|320:32,4,120
256,128,8158,2,4,B|256:256,4,120
480,32,10869,5,4
480,32,11039,1,4
480,32,11208,1,4
480,32,11378,1,4
480,32,11547,1,4
352,32,12056,1,2
224,32,12564,1,2
96,32,13073,1,2
32,128,13581,5,4
32,128,13751,1,4
32,128,13920,1,4
32,128,14090,1,4
32,128,14259,1,4
160,128,14767,1,2
288,128,15276,1,2
416,128,15784,1,2
480,224,16293,5,4
480,224,16462,1,4
480,224,16632,1,4
480,224,16801,1,4
480,224,16971,1,4
352,224,17479,1,2
224,224,17988,1,2
96,224,18496,1,2
32,320,19004,5,4
32,320,19174,1,4
32,320,19343,1,4
32,320,19513,1,4
32,320,19682,1,4
160,320,20191,1,2
288,320,20699,1,2
416,320,21208,1,2
480,352,21716,5,4
480,352,21886,1,4
480,352,22055,1,4
480,352,22225,1,4
480,352,22394,1,4
480,288,22733,1,2
480,224,23072,1,2
480,160,23411,1,2
480,96,23750,1,2
480,32,24089,1,2
32,352,24428,5,4
32,352,24597,1,4
32,352,24767,1,4
32,352,24936,1,4
32,352,25106,1,4
32,288,25445,1,2
32,224,25784,1,2
32,160,26123,1,2
32,96,26462,1,2
32,32,26801,1,2
96,64,27140,5,4
128,96,27309,1,4
160,128,27479,1,4
192,160,27648,1,4
224,192,27818,1,4
288,256,28157,1,2
320,224,28495,1,2
352,192,28834,1,2
384,160,29173,1,2
416,128,29512,1,2
448,320,29851,5,4
416,288,30021,1,4
384,256,30190,1,4
352,224,30360,1,4
320,192,30529,1,4
256,32,30868,2,4,B|160:32|160:32|160:64|160:64|352:64|352:64|352:96|352:96|160:96|160:96|160:128|160:128|352:128|352:128|352:160|352:160|160:160|160:160|160:192|160:192|352:192|352:192|352:224|352:224|160:224|160:224|160:256|160:256|384:256,1,1680
32,32,44088,5,0
32,96,44427,1,0
32,160,44766,1,0
32,224,45105,1,0
32,288,45444,1,0
32,288,45783,1,0
96,288,46122,5,0
96,224,46461,1,0
96,160,46800,1,0
96,96,47139,1,0
96,32,47477,1,0
96,32,47816,1,0
256,64,48325,5,2
256,64,48494,1,2
256,128,48833,1,2
256,192,49172,1,2
128,224,49511,5,0
128,224,49681,1,0
128,224,49850,1,0
224,288,50189,1,0
224,288,50359,1,0
224,288,50528,1,0
288,288,50867,1,0
288,288,51037,1,0
288,288,51206,1,0
384,224,51545,1,0
384,224,51715,1,0
384,224,51884,1,0
320,128,52223,5,0
320,128,52392,1,0
320,128,52562,1,0
192,128,52901,1,0
192,128,53070,1,0
192,128,53240,1,0
128,32,53579,5,2
160,32,53748,1,2
192,32,53918,1,2
256,32,54087,1,2
320,32,54257,1,2
352,32,54426,1,2
384,32,54596,1,2
480,352,54935,6,0,B|0:352|0:192|0:192|192:192,1,720
256,192,56291,5,4
256,192,56460,1,4
256,192,56630,1,4
256,192,56968,1,4
256,192,57138,1,4
256,192,57307,1,4
32,32,57646,6,0,B|512:32|512:192|512:192|320:192,1,720
256,192,59002,5,4
256,192,59172,1,4
256,192,59341,1,4
256,192,59680,1,4
256,192,59850,1,4
256,192,60019,1,4
256,192,60358,6,0,B|256:128|256:128|320:128|320:128|320:256|320:256|192:256|192:256|192:64|192:64|384:64|384:64|384:320|384:320|192:320,1,1200
128,320,62392,5,0
128,320,62561,1,0
128,320,62731,1,0
128,320,62900,1,0
128,320,63070,1,0
32,320,63409,1,0
32,256,63748,1,0
96,256,64087,1,0
96,192,64426,1,0
32,192,64765,1,0
32,256,65104,1,0
96,256,65443,1,0
32,352,65782,6,2,B|448:64,2,480
32,256,67476,1,0
32,160,67815,1,0
32,64,68154,1,0
32,32,68493,6,2,B|416:352,2,480
128,32,70188,1,0
224,32,70527,1,0
320,32,70866,1,0
480,32,71205,6,2,B|64:320,2,480
480,128,72900,1,0
480,224,73239,1,0
480,320,73578,1,0
256,192,74256,5,4
256,192,74425,1,4
256,192,74595,1,4
384,192,74934,1,4
384,192,75103,1,4
320,160,75442,1,4
320,160,75696,1,4
256,160,75950,1,4
192,160,76289,1,4
32,32,76628,6,2,B|480:32|480:192,2,480
32,96,78323,1,0
32,192,78662,1,0
32,288,79001,1,0
32,352,79340,6,2,B|480:352|480:192,2,480
32,288,81035,1,0
32,192,81374,1,0
32,96,81713,1,0
32,32,82052,6,2,B|128:224|128:224|416:224|416:224|512:0,1,720
256,32,83408,1,0
256,128,83747,1,0
256,224,84086,1,0
256,320,84425,1,0
32,192,85103,5,4
32,192,85441,1,4
32,192,85611,1,4
96,192,85780,1,4
160,192,85950,1,4
224,192,86119,1,4
288,192,86289,1,4
352,192,86458,1,4
416,192,86628,1,4
256,256,87052,1,4
256,128,87475,1,4
96,128,89509,5,4
96,128,89679,1,4
96,128,89848,1,4
96,128,90018,1,4
96,128,90187,1,4
256,192,92306,5,4
256,192,92475,1,4
256,192,92644,1,4
256,192,92814,1,4
256,192,92983,1,4
384,128,94932,5,4
384,128,95102,1,4
384,128,95271,1,4
384,128,95441,1,4
384,128,95610,1,4
32,32,109169,5,4
32,32,109508,1,4
32,32,109847,1,4
32,32,110186,1,4
96,96,110525,5,4
96,96,110864,1,4
96,96,111203,1,4
96,96,111542,1,4
160,160,111881,5,4
160,160,112220,1,4
160,160,112559,1,4
160,160,112898,1,4
224,192,113237,5,2
224,192,113406,1,2
224,192,113576,1,2
288,192,113914,1,2
288,192,114084,1,2
288,192,114253,1,2
480,32,114762,5,2
480,96,114931,1,2
480,160,115101,1,2
480,224,115270,1,2
480,288,115440,1,2
480,352,115609,1,2
416,352,115779,1,2
352,352,115948,1,2
288,352,116118,1,2
224,352,116287,1,2
160,352,116457,1,2
96,352,116626,1,2
32,352,116796,1,2
32,288,116965,1,2
32,288,117304,5,4
32,224,117474,1,4
32,160,117643,1,4
32,96,117813,1,4
32,32,117982,1,4
96,32,118152,1,4
160,32,118321,1,4
224,32,118491,1,4
288,32,118660,1,4
352,32,118829,1,4
416,32,118999,1,4
480,32,119338,1,4
480,32,119507,1,4
480,32,119677,1,4
384,96,120016,5,0
256,32,120355,5,2
256,192,120694,5,4
256,192,120863,1,4
256,192,121033,1,4
160,224,121372,5,0
160,224,121711,1,2
160,224,122050,1,4
160,224,122219,1,4
160,224,122389,1,4
224,288,122728,5,2
224,288,122897,1,2
224,288,123067,1,2
320,288,123405,1,2
320,288,123575,1,2
320,288,123744,1,2
384,224,124083,5,0
384,224,124422,1,2
384,224,124761,1,4
384,224,124931,1,4
384,224,125100,1,4
384,96,125439,5,2
384,96,125609,1,2
384,96,125778,1,2
256,96,126117,1,2
256,96,126287,1,2
256,96,126456,1,2
192,32,126795,5,4
192,32,126965,1,4
192,32,127134,1,4
192,32,127304,1,4
192,32,127473,1,4
192,32,127643,1,4
192,32,127812,1,4
256,192,128151,2,6,B|320:192|320:160|320:160|320:128|256:128|256:128|192:128|192:192|192:192|192:256|256:256|256:256|384:256|384:160|384:160|384:64|256:64|256:64|128:64|128:192|128:192|128:320|256:320|256:320|448:320|448:192|448:192|448:0|256:0,1,1680
32,352,130863,5,0
64,288,131541,1,0
96,224,132134,1,0
128,288,132558,1,0
160,224,132896,1,0
192,160,133235,1,0
224,224,133574,5,0
256,288,134252,1,0
288,224,134761,1,0
320,288,135269,1,0
352,352,135608,1,0
384,288,135947,1,0
416,224,136286,5,0
448,160,136964,1,0
416,96,137473,1,0
448,32,137981,1,0
448,32,138320,1,0
448,32,138659,1,0
96,288,139337,5,2
96,288,139506,1,2
96,288,139676,1,2
192,288,140015,1,2
192,288,140184,1,2
192,128,140608,1,2
256,192,140777,1,2
320,128,141116,1,2
320,288,141371,1,2
480,32,141710,5,0
448,96,142472,1,0
416,160,142896,1,0
384,96,143404,1,0
352,160,143828,1,0
320,224,144082,1,0
288,160,144421,5,0
256,96,145099,1,0
224,160,145608,1,0
192,96,146116,1,0
160,32,146455,1,0
128,96,146794,1,0
96,160,147133,5,0
64,224,147811,1,0
32,288,148319,1,0
64,352,148828,1,0
64,352,149167,1,0
64,352,149506,1,0
128,288,150184,5,4
128,288,150523,1,4
192,224,150692,1,4
192,224,150862,1,4
192,224,151031,1,4
256,224,151201,1,4
320,224,151455,1,4
384,224,151624,1,4
384,160,151794,1,4
288,128,152217,1,4
256,192,152556,12,0,154251
256,192,154590,1,0
224,160,154760,1,0
192,128,154929,1,0
160,96,155099,1,0
128,64,155268,1,0
256,192,155607,12,0,156963
256,192,157302,1,2
224,224,157471,1,2
192,256,157641,1,2
160,288,157810,1,2
128,320,157980,1,2
256,192,158319,12,0,159675
128,320,160014,1,4
128,256,160183,1,4
128,192,160353,1,4
128,128,160522,1,4
128,64,160692,1,4
192,64,161031,1,4
256,64,161200,1,4
256,64,161369,1,4
256,64,161708,1,4
320,64,161878,1,4
320,64,162047,1,4
320,64,162386,1,4
384,64,162725,1,4
384,64,162895,1,4
384,64,163064,1,4
384,128,163234,1,4
320,192,163403,1,4
256,192,163742,6,2,B|64:32,4,240
256,160,165437,1,4
256,128,165607,1,4
256,96,165776,1,4
256,128,165946,1,4
256,160,166115,1,4
256,192,166454,6,2,B|448:352,4,240
256,224,168149,1,4
256,256,168318,1,4
256,288,168488,1,4
256,256,168657,1,4
256,224,168827,1,4
256,192,169166,6,2,B|448:32,4,240
288,192,170860,1,4
320,192,171030,1,4
352,192,171199,1,4
384,192,171369,1,4
416,192,171538,1,4
416,256,171877,5,2
416,256,172047,1,2
352,288,172216,1,2
288,288,172555,1,2
288,288,172725,1,2
224,288,172894,1,2
224,288,173233,1,2
160,288,173572,1,2
160,288,173911,1,2
256,192,185436,12,0,187809
256,192,188148,12,0,190520
256,192,190859,12,0,193232
32,32,193571,1,4
96,96,193910,1,4
128,128,194080,1,4
160,160,194249,1,4
192,192,194419,1,4
224,224,194588,1,4
256,256,194757,1,4
288,288,194927,1,4
352,224,195266,1,4
416,160,195605,1,4
32,32,195944,6,2,B|32:352|32:352|480:352|480:352|480:32|480:32|96:32|96:32|96:288|96:288|416:288|416:288|416:96|416:96|160:96|160:96|160:224|160:224|352:224|352:224|352:160|352:160|256:160,2,2940
32,32,204418,5,4
32,32,204587,1,4
32,32,204757,1,4
64,96,205181,1,4
64,96,205350,1,4
96,160,205689,1,4
96,160,205859,1,4
128,96,206113,1,4
160,32,206452,1,4
64,32,206791,6,2,B|256:32|256:32|256:352|256:352|32:352|32:352|32:96,1,960
128,128,208486,1,0
256,128,208824,1,0
384,128,209163,1,0
480,128,209502,6,2,B|480:352|480:352|256:352|256:352|256:32|256:32|480:32,1,960
448,128,211197,1,0
448,224,211536,1,0
352,224,211875,1,0
256,192,212214,6,2,B|256:160|256:160|224:160|224:160|224:224|224:224|288:224|288:224|288:128|288:128|192:128|192:128|192:256|192:256|320:256|320:256|320:96|320:96|128:96,1,960
96,96,213909,1,0
32,96,214248,1,0
32,32,214587,1,0
32,32,215265,5,4
32,32,215519,1,4
96,96,215689,1,4
96,96,215943,1,4
160,160,216112,1,4
160,160,216282,1,4
224,224,216451,1,4
224,224,216621,1,4
288,288,216790,1,4
288,288,217129,1,4
384,32,238653,5,4
384,32,238823,1,4
384,32,238992,1,4
384,32,239162,1,4
384,32,239331,2,4,B|0:32|0:32|0:192|0:192|384:192|384:192|384:352|384:352|0:352,1,1440
32,352,241535,5,4
32,352,241704,1,4
32,352,241874,1,4
32,352,242043,2,4,B|32:32|32:32|384:32|384:32|384:64|384:64|32:64|32:64|32:192|32:192|320:192,1,1440
288,192,244246,5,4
288,192,244416,1,4
288,192,244585,1,4
288,192,244755,2,4,B|32:192|32:192|32:352|32:352|288:352|288:352|288:32|288:32|32:32|32:32|32:256,1,1440
32,224,246958,5,4
32,224,247127,1,4
32,224,247297,1,4
32,224,247466,1,4
96,224,247975,1,4
160,224,248144,1,4
224,224,248653,1,4
288,224,248822,1,4
352,224,249331,1,4
416,224,249500,1,4
480,224,249839,1,4
