osu file format v5

[General]
AudioFilename: The Ting Tings - Shut Up and Let Me Go.mp3
AudioLeadIn: 0
PreviewTime: -1
Countdown: 1
SampleSet: Normal
StackLeniency: 0.7
Mode: 0
LetterboxInBreaks: 1

[Metadata]
Title:Shut Up and Let Me Go
Artist:The Ting Tings
Creator:EEeee
Version:Normal
Source:
Tags:

[Difficulty]
HPDrainRate:6
CircleSize:5
OverallDifficulty:4
SliderMultiplier:1.4
SliderTickRate:2

[Events]
//Background and Video events
0,0,"0000279726_350.jpg"
1,-4399,"The Ting Tings - Shut Up and Let Me Go^_^.avi"
//Break Periods
2,19464,26833
2,58909,66833
2,107798,115722
2,123909,127528
2,147381,163639
//Storyboard Layer 0 (Background)
//Storyboard Layer 1 (Failing)
//Storyboard Layer 2 (Passing)
//Storyboard Layer 3 (Foreground)
//Storyboard Sound Samples
//Background Colour Transformations
3,100,163,162,255

[TimingPoints]
1487,555.555555555556,4,1,0,100,1,0
50375,-100,4,2,0,100,0,1
64297,-100,4,1,0,100,0,0
77042,-100,4,1,0,100,0,0
99264,-100,4,1,0,100,0,1
105792,-100,4,2,0,100,0,0
116903,-100,4,1,0,100,0,0
117042,-100,4,1,0,100,0,1
119125,-100,4,1,0,100,0,0
119264,-100,4,1,0,100,0,1
121348,-100,4,1,0,100,0,0
121487,-100,4,1,0,100,0,1
123570,-100,4,1,0,100,0,0
123709,-100,4,1,0,100,0,1
128848,555.555555555556,4,1,0,100,1,0

[Colours]
Combo1 : 217,0,0
Combo2 : 221,238,255
Combo3 : 47,151,255
Combo4 : 210,0,210
Combo5 : 0,147,73

[HitObjects]
120,72,1487,1,0
256,72,2042,1,0
392,72,2598,1,0
256,112,3153,1,0
120,136,3709,5,0
256,136,4264,1,0
392,136,4820,1,0
256,160,5375,1,0
120,184,5931,5,0
256,184,6487,1,0
392,184,7042,1,0
256,216,7598,1,0
256,216,8153,5,0
256,216,8709,5,0
256,216,9264,5,0
256,216,9820,5,0
256,216,10375,6,0,L|256:48,2,140
328,216,11764,1,0
400,216,12042,1,8
472,216,12320,1,0
472,144,12598,6,0,L|312:144,1,140
264,144,13431,1,0
264,144,13709,1,8
264,144,13987,1,0
264,144,14264,1,8
264,144,14542,1,0
264,144,14820,6,0,L|176:144,1,70
195,73,15375,2,0,L|195:177,1,70
124,143,15931,2,0,L|212:143,1,70
194,214,16487,1,8
194,214,16764,1,0
194,214,17042,2,0,L|194:302,1,70,8|0
264,280,17598,5,0
400,280,18153,1,0
336,152,18709,2,0,L|336:96,4,35
248,192,28153,6,0,L|248:136,1,35
248,88,28570,2,0,L|304:88,1,35
352,88,28987,1,0
352,88,29264,2,2,B|432:104|416:208,1,140,0|0
416,264,30098,6,0,B|328:264,1,70
272,264,30653,1,0
200,264,30931,1,0
128,264,31209,1,0
56,264,31487,2,2,B|56:160,1,70,0|0
56,56,32320,6,0,B|56:112,2,35
128,56,32875,1,0
200,56,33153,1,0
272,56,33431,5,0
344,56,33709,5,0
416,56,33987,1,0
488,56,34264,2,0,B|488:152,1,70
488,192,34820,6,8,B|424:192,1,35
384,192,35237,2,8,B|320:192,1,35
280,192,35653,1,0
208,192,35931,2,0,B|104:192,1,70,0|0
136,48,36764,5,0
136,48,37042,1,0
136,48,37320,1,0
136,120,37598,1,0
136,120,37875,1,0
136,120,38153,2,0,B|136:208,1,70
136,256,38709,5,8
136,256,38987,1,0
136,256,39264,1,8
208,256,39542,1,0
208,256,39820,5,8
208,256,40098,5,0
280,256,40375,1,8
280,256,40653,1,8
280,256,40931,1,8
280,112,41487,6,0,B|432:112,2,140
208,112,42875,2,8,B|160:112,1,35
104,112,43292,2,8,B|56:112,1,35
64,184,43709,6,0,B|216:184,2,140
64,256,45097,2,8,B|112:256,1,35
168,256,45514,2,8,B|216:256,1,35
272,256,45931,5,0
344,256,46209,1,0
416,256,46487,1,0
416,184,46764,1,0
416,112,47042,1,0
416,40,47320,6,0,B|264:40,1,140
208,40,48153,1,0
136,40,48431,1,0
64,40,48709,1,0
64,112,48987,5,0
64,184,49264,5,0
64,256,49542,2,8,B|64:304,1,35
64,360,49959,2,12,B|128:360,1,35
256,192,50375,12,0,52320
256,192,52598,12,0,54542
256,192,54820,12,0,56764
80,160,57042,6,2,B|136:160,1,35
184,160,57459,2,2,B|184:96,1,35
184,56,57875,1,2
256,56,58153,1,2
256,192,58709,5,2
256,56,68153,6,2,B|256:200,1,140,0|0
256,336,69264,1,0
328,336,69542,2,0,B|328:288,1,35,8|0
328,232,69959,2,0,B|328:176,1,35,8|0
328,128,70375,6,2,B|184:128,1,140,0|0
48,128,71486,1,0
48,200,71764,2,0,B|96:200,1,35,8|0
152,200,72181,2,0,B|208:200,1,35,8|0
256,200,72598,6,0,B|336:200,1,70
392,200,73153,1,0
464,200,73431,1,0
464,128,73709,6,0,B|384:128,1,70
328,128,74264,1,0
256,128,74542,1,0
256,200,74820,6,0,B|176:200,1,70
120,200,75375,1,0
120,56,75931,1,0
120,128,76209,2,0,B|168:128,1,35,8|0
224,128,76625,2,0,B|272:128,1,35,8|0
328,128,77042,6,0,B|392:128,1,35
432,128,77459,2,0,B|432:192,1,35
432,232,77875,1,0
432,232,78153,2,2,B|392:320|320:224,1,140,0|0
256,208,78987,5,0
192,184,79264,1,0
128,160,79542,1,0
64,136,79820,1,0
128,112,80098,1,0
192,88,80375,2,2,B|224:56|272:64,1,70,0|0
392,64,81209,6,0,B|392:16,2,35
392,136,81764,2,0,B|392:224,1,70
320,208,82320,2,0,B|320:288,1,70
248,280,82875,2,0,B|248:360,1,70
176,352,83431,5,0
104,352,83709,6,0,B|104:288,1,35,8|0
104,248,84125,2,0,B|104:200,1,35,8|0
104,144,84542,1,8
104,72,84820,1,4
312,72,85653,6,0,B|392:72,1,70
448,72,86209,1,0
448,144,86487,1,0
448,216,86764,1,0
448,288,87042,1,0
376,288,87320,2,0,B|304:288,1,70
232,288,87875,5,0
160,288,88153,1,0
160,216,88431,1,0
160,144,88709,1,0
232,144,88987,5,0
304,144,89264,1,0
376,144,89542,1,0
448,144,89820,1,0
448,280,90375,5,4
304,280,90931,1,0
160,280,91487,1,0
88,280,91764,2,0,B|88:224,1,35,8|0
88,176,92181,2,0,B|88:112,1,35,8|0
88,72,92598,5,4
232,72,93154,1,0
376,72,93710,1,0
448,72,93987,2,0,B|448:128,1,35,8|0
448,176,94404,2,0,B|448:240,1,35,8|0
448,280,94820,6,0,B|344:280,1,70
304,280,95375,2,0,B|200:280,1,70
160,280,95931,1,0
88,280,96209,1,0
88,208,96487,1,0
88,136,96764,1,0
88,64,97042,5,0
160,64,97320,1,0
232,64,97598,2,0,B|328:64,1,70
368,64,98153,5,0
368,64,98431,5,0
368,64,98709,5,0
368,64,98987,5,0
368,64,99264,5,4
368,200,99820,1,0
224,200,100375,1,0
368,200,100931,5,0
368,336,101487,1,4
368,200,102042,5,0
224,200,102598,1,0
368,200,103153,5,0
368,64,103709,1,4
368,200,104264,5,0
368,336,104820,1,0
368,200,105375,6,0,B|272:200,1,70
224,200,105931,2,2,B|160:200,1,35,10|2
120,200,106348,2,2,B|72:200,1,35,10|2
80,128,106764,2,2,B|160:128,1,70
256,192,107598,5,2
256,192,117042,12,0,118153
256,192,119264,12,0,120375
256,192,121487,12,0,122598
256,192,123709,5,0
256,192,128848,5,0
112,192,129403,5,0
112,192,129959,1,0
112,192,130514,1,0
112,192,131070,1,0
256,192,131625,5,0
256,192,132181,1,0
256,192,132736,1,0
256,192,133292,1,0
392,192,133848,5,0
392,192,134403,1,0
392,120,134681,1,0
392,48,134959,1,0
256,48,135514,5,0
256,120,135792,1,0
256,192,136070,1,0
256,328,136625,5,0
376,264,137181,1,0
256,192,137736,1,0
136,264,138292,5,0
16,192,138848,1,0
136,120,139403,1,0
256,192,139959,1,0
376,120,140514,5,0
496,192,141070,1,0
376,264,141625,1,0
256,192,142181,1,0
376,120,142736,5,0
376,120,143292,1,0
304,120,143570,1,0
232,120,143848,1,0
88,120,144403,5,0
88,192,144681,1,0
88,264,144959,1,0
88,120,145514,5,0
160,120,145792,1,0
232,120,146070,1,0
232,256,146625,5,0
304,256,146903,1,0
376,256,147181,1,0
256,192,164959,6,0,B|256:240,1,35,8|0
256,296,165375,2,0,B|256:256,1,35,8|0
256,192,165792,1,8
256,120,166070,2,2,B|256:40,1,70,0|0
392,48,166903,5,0
320,48,167181,1,0
392,48,167459,5,8
320,48,167736,1,8
392,48,168014,5,0
320,48,168292,2,2,B|320:136,1,70,0|0
320,256,169125,5,0
320,256,169403,5,0
320,256,169681,5,0
320,256,169959,5,0
320,256,170236,5,0
248,256,170514,5,0
248,256,170792,5,0
248,256,171070,5,0
248,256,171348,5,0
246,325,171625,6,2,B|147:313|148:221,2,140,0|0|0
248,184,173292,5,0
