osu file format v5

[General]
AudioFilename: 01 The Ting Tings - Great Dj.mp3
AudioLeadIn: 0
PreviewTime: -1
Countdown: 1
SampleSet: Normal
StackLeniency: 0.7
Mode: 0

[Metadata]
Title:Great Dj
Artist:The Ting Tings
Creator:mkdtcw
Version:

[Difficulty]
HPDrainRate:5
CircleSize:5
OverallDifficulty:5
SliderMultiplier:1.4
SliderTickRate:1

[Events]
//Background and Video events
0,0,"the_ting_tings.jpg"
//Break Periods
//Storyboard Layer 0 (Background)
//Storyboard Layer 1 (Failing)
//Storyboard Layer 2 (Passing)
//Storyboard Layer 3 (Foreground)
//Storyboard Sound Samples
//Background Colour Transformations
3,100,163,162,255

[TimingPoints]
0,1000,4,1,0,100

[HitObjects]
64,32,31750,1,0
64,112,32250,1,0
64,192,32750,1,0
144,192,33125,1,0
224,192,33625,1,0
48,32,35500,1,0
48,112,36125,1,0
48,192,36625,1,0
128,192,37000,1,0
208,192,37500,1,0
464,48,39375,5,0
464,128,39875,1,0
464,224,40375,1,0
368,224,40875,1,0
256,224,41375,1,0
256,128,41750,1,0
256,48,42000,1,0
160,48,42625,1,0
160,128,43125,1,0
160,224,43625,1,0
256,224,44125,1,0
352,224,44625,1,0
448,224,45125,1,0
48,48,47125,5,0
112,112,47625,1,0
176,176,48125,1,0
240,240,48500,1,0
320,304,49000,1,0
464,64,50875,1,0
464,160,51375,1,0
464,272,51875,1,0
368,272,52375,1,0
368,160,52750,1,0
448,64,54750,1,0
448,160,55250,1,0
448,272,55625,1,0
352,272,56125,1,0
352,160,56625,1,0
352,48,57125,1,0
256,48,57500,1,0
256,160,58000,1,0
256,272,58500,1,0
160,272,59000,1,0
160,160,59625,1,0
160,48,60000,1,0
256,48,60500,1,0
464,48,61500,5,0
400,112,62000,1,0
320,48,62500,1,0
256,112,62875,1,0
192,48,63375,1,0
128,112,63875,1,0
48,48,64375,1,0
48,48,64625,1,0
48,48,64875,1,0
48,48,65125,1,0
48,176,65750,1,0
112,256,66250,1,0
176,176,66750,1,0
240,256,67250,1,0
320,176,67625,1,0
416,256,68250,1,0
416,256,68375,1,0
416,256,68625,1,0
416,256,68875,1,0
416,112,69500,1,0
336,48,70125,1,0
256,112,70500,1,0
176,48,70750,1,0
96,112,71000,1,0
96,208,71500,1,0
96,304,72000,1,0
96,304,72250,1,0
96,304,72500,1,0
96,304,72750,1,0
192,336,73500,1,0
288,336,74000,1,0
96,192,74625,1,0
128,192,74875,1,0
224,192,75625,1,0
256,192,75875,1,0
352,192,76625,1,0
384,192,76875,1,0
464,96,77625,1,0
432,96,77875,1,0
288,96,78500,1,0
256,96,78750,1,0
112,96,79500,1,0
64,96,79750,1,0
64,208,80500,1,0
112,208,80750,1,0
240,208,81375,1,0
272,208,81625,1,0
400,208,82375,1,0
432,208,82625,1,0
432,80,83375,1,0
400,80,83625,1,0
288,80,84250,1,0
256,80,84500,1,0
176,80,85125,2,0,B|48:80,1,122.5
256,192,86875,12,0,92907
160,80,93250,1,0
160,176,93625,1,0
256,256,94125,1,0
336,176,94500,1,0
336,80,95000,1,0
96,64,97000,1,0
96,192,97500,1,0
208,192,98000,1,0
320,192,98500,1,0
432,192,99000,1,0
448,48,101000,1,0
384,112,101375,1,0
320,176,101875,1,0
256,240,102375,1,0
192,304,102875,1,0
112,240,103250,1,0
32,176,103750,1,0
48,48,104750,1,0
144,128,105125,1,0
240,48,105625,1,0
352,128,106125,1,0
448,48,106625,1,0
64,64,108625,5,0
128,144,109000,1,0
208,224,109500,1,0
288,144,110000,1,0
368,64,110375,1,0
240,176,112875,1,0
320,240,113375,1,0
400,160,113750,1,0
464,64,114250,1,0
352,48,116125,1,0
288,128,116625,1,0
224,208,117125,1,0
112,208,117625,1,0
112,96,118125,1,0
224,96,118625,1,0
336,96,119000,1,0
448,96,119500,1,0
448,192,120000,1,0
448,288,120500,1,0
336,288,121000,1,0
336,192,121500,1,0
336,80,122000,1,0
64,64,122875,5,0
128,128,123375,1,0
192,64,123875,1,0
256,128,124375,1,0
320,64,124875,1,0
432,128,125375,1,0
432,240,125750,1,0
432,240,126000,1,0
432,240,126250,1,0
432,240,126500,1,0
352,336,127250,1,0
272,256,127750,1,0
192,336,128250,1,0
96,256,128625,1,0
96,144,129125,1,0
96,48,129625,1,0
96,48,129875,1,0
96,48,130125,1,0
96,48,130375,1,0
192,144,131125,1,0
256,64,131625,1,0
336,144,132125,1,0
416,64,132500,1,0
480,144,133000,1,0
416,240,133500,1,0
416,240,133625,1,0
416,240,133875,1,0
416,240,134125,1,0
304,240,135000,1,0
176,240,135500,1,0
176,144,136250,1,0
208,144,136500,1,0
288,144,137125,1,0
304,144,137375,1,0
384,144,138250,1,0
400,144,138375,1,0
464,48,139125,1,0
432,48,139250,1,0
320,48,140000,1,0
288,48,140250,1,0
160,48,141000,1,0
128,48,141250,1,0
128,176,141875,1,0
160,176,142125,1,0
272,176,142875,1,0
304,176,143125,1,0
400,176,143875,1,0
448,176,144000,1,0
448,304,144750,1,0
400,304,145000,1,0
288,304,145750,1,0
240,304,146000,1,0
144,304,146875,1,0
96,304,147000,1,0
96,208,147750,1,0
144,208,147875,1,0
256,208,148625,1,0
304,208,148875,1,0
416,208,149750,1,0
464,208,149875,1,0
464,80,150625,1,0
416,80,150750,1,0
320,80,151500,1,0
272,80,151750,1,0
160,80,152500,1,0
112,80,152750,1,0
112,176,153500,1,0
112,208,153625,1,0
112,304,154750,2,0,B|304:112|480:352,2,437.5
80,112,161625,2,0,B|336:32,1,262.5
128,240,163500,6,0,B|400:112,1,297.5
80,48,166000,6,0,B|336:240,1,315
48,48,169000,5,0
112,128,169500,1,0
176,208,170000,1,0
240,128,170500,1,0
304,48,171000,1,0
368,128,171500,1,0
464,128,171875,1,0
464,128,172125,1,0
464,128,172375,1,0
464,128,172625,1,0
464,240,173375,1,0
368,240,173875,1,0
304,160,174250,1,0
224,240,174750,1,0
144,160,175250,1,0
272,144,175750,1,0
272,144,176000,1,0
272,144,176250,1,0
272,144,176500,1,0
64,64,177250,1,0
64,160,177625,1,0
160,160,178125,1,0
160,64,178500,1,0
256,64,179125,1,0
256,160,179500,1,0
256,160,179750,1,0
256,160,180000,1,0
256,160,180250,1,0
32,64,181000,1,0
64,64,181500,1,0
208,64,182375,1,0
208,64,183000,1,0
208,64,183500,1,0
208,64,183750,1,0
208,64,184000,1,0
208,64,184125,1,0
208,176,184875,1,0
352,80,185750,1,0
224,80,186250,1,0
96,96,186750,1,0
128,240,187250,1,0
128,240,187500,1,0
128,240,187750,1,0
128,240,187875,1,0
224,144,188625,1,0
304,80,189125,1,0
336,224,189625,1,0
176,224,190125,1,0
96,112,190500,1,0
224,80,191000,1,0
224,80,191250,1,0
224,80,191500,1,0
224,80,191750,1,0
224,80,192000,1,0
416,112,192500,1,0
400,272,193000,1,0
192,224,193500,1,0
112,112,193875,1,0
272,80,194500,1,0
304,192,194875,1,0
304,192,195125,1,0
304,192,195375,1,0
304,192,195625,1,0
80,160,196375,1,0
192,128,196875,1,0
384,192,197625,1,0
384,192,197875,1,0
144,240,198625,1,0
144,240,198875,1,0
144,240,199500,1,0
144,240,199750,1,0
