osu file format v5

[General]
AudioFilename: 01 The Ting Tings - Great Dj.mp3
AudioLeadIn: 0
PreviewTime: -1
Countdown: 1
SampleSet: Normal
StackLeniency: 0.3
Mode: 0
LetterboxInBreaks: 1

[Metadata]
Title:Great DJ
Artist:The Ting Tings
Creator:EEeee
Version:Normal
Source:
Tags:

[Difficulty]
HPDrainRate:4
CircleSize:4
OverallDifficulty:4
SliderMultiplier:1.6
SliderTickRate:2

[Events]
//Background and Video events
0,0,"41NhIgQT6cL._SS500_.jpg"
1,-5400,"The Ting Tings - Great DJ [2008][SkidVid]_.avi"
//Break Periods
2,85199,92109
2,106800,107470
2,154321,167952
//Storyboard Layer 0 (Background)
//Storyboard Layer 1 (Failing)
//Storyboard Layer 2 (Passing)
//Storyboard Layer 3 (Foreground)
//Storyboard Sound Samples
//Background Colour Transformations
3,100,163,162,255

[TimingPoints]
15877,480.016306954438,4,1,0,100,1,0
31621,-100,4,2,0,100,0,0
34019,-100,4,1,0,100,0,0
35338,-100,4,2,0,100,0,0
37856,-100,4,1,0,100,0,0
39295,-100,4,2,0,100,0,0
45290,-100,4,1,0,100,0,0
46931,-100,4,2,0,100,0,0
49303,-100,4,1,0,100,0,0
50549,-100,4,2,0,100,0,0
53204,-100,4,1,0,100,0,0
54621,-100,4,2,0,100,0,0
62318,-100,4,2,0,100,0,1
92919,-100,4,2,0,100,0,0
95263,-100,4,1,0,100,0,0
96879,-100,4,2,0,100,0,0
99279,-100,4,1,0,79,0,0
100932,-100,4,2,0,100,0,0
106840,-100,4,2,0,100,0,1
115849,-100,4,2,0,100,0,0
123760,-100,4,2,0,100,0,1
168762,-100,4,2,0,100,0,1
183162,-100,4,1,0,100,0,1
184242,-100,4,2,0,100,0,1
199603,-200,4,2,0,100,0,1

[Colours]
Combo1 : 31,97,72
Combo2 : 210,15,103
Combo3 : 90,194,228
Combo4 : 238,4,4
Combo5 : 0,100,0

[HitObjects]
256,16,15877,6,0,C|256:176,3,160
256,336,17797,5,0
256,176,18277,1,0
256,176,18517,1,0
256,176,18757,1,0
256,176,18997,1,0
416,176,19477,2,8,C|320:176,1,80
256,16,20197,6,0,C|256:176,3,160
256,176,22117,5,0
256,176,22357,1,0
256,176,22597,1,0
256,176,22837,1,0
96,176,23317,2,8,C|192:176,1,80
256,312,24037,5,0
176,176,24517,1,0
256,40,24997,1,0
176,176,25477,1,0
336,176,25957,5,0
336,176,26197,1,0
256,176,26437,1,0
256,176,26677,1,0
96,176,27157,2,8,C|176:176,1,80
256,40,27877,5,0
336,176,28357,1,0
256,312,28837,1,0
336,176,29317,1,0
176,176,29797,5,0
176,176,30037,1,0
256,176,30277,1,0
256,176,30517,1,0
416,176,30997,2,8,C|336:176,1,80
176,176,31717,5,0
176,16,32197,1,0
312,96,32677,1,0
176,176,33157,1,0
176,16,33637,2,0,C|176:112,1,80
176,176,34117,5,0
176,176,34357,1,0
176,336,34837,1,0
176,336,35077,1,0
256,336,35317,6,0,C|400:336|400:336|400:232,1,240
400,112,36517,1,8
240,112,36997,1,8
80,112,37477,1,8
80,272,37957,5,0
80,192,38197,1,0
176,64,38677,1,0
176,64,38917,2,0,C|176:224,1,160
16,224,39877,5,0
176,224,40357,1,0
16,224,40837,1,0
16,144,41077,1,0
16,64,41317,1,0
16,144,41557,1,0
16,224,41797,1,0
96,224,42037,6,0,C|184:224,1,80
256,224,42517,1,0
256,224,42757,2,0,C|256:56,6,160,0|2|0|2|0|2|0
256,304,45878,5,0
96,304,46358,1,0
96,304,46598,2,0,C|0:304,1,80
16,232,47078,6,0,C|16:72,1,160,0|2
96,72,47798,1,2
176,72,48038,2,0,C|176:256,1,160,0|2
256,232,48758,1,2
336,232,48998,2,0,C|336:72,1,160,0|0
256,72,49718,5,0
168,72,49958,1,0
80,72,50198,1,0
80,72,50438,1,0
80,248,50918,6,0,C|240:248,1,160,0|2
240,160,51638,1,2
240,72,51878,2,0,C|48:72,1,160,0|2
80,160,52598,2,0,C|80:248|80:248|208:248,1,240,2|0
296,248,53558,5,0
376,248,53798,1,0
456,248,54038,1,0
456,248,54278,1,0
456,88,54758,6,0,C|312:88|312:88|312:248,2,320
456,168,56918,1,2
456,168,57158,1,2
456,168,57398,2,2,C|456:224|408:232,1,80
352,232,57878,6,2,C|256:232,3,80
272,152,58838,1,2
272,152,59078,1,2
272,152,59318,2,2,C|160:152,3,80,2|10|2|10
256,192,60518,12,4,62438
56,192,62918,6,8,C|168:192,2,80
56,112,63638,1,8
136,112,63878,2,8,C|240:112,3,80
288,112,64838,1,8
368,112,65078,1,8
448,192,65798,6,8,C|336:192,2,80
448,112,66518,1,8
368,112,66758,2,8,C|264:112,3,80
216,112,67718,1,8
136,112,67958,1,8
56,112,68198,2,8,C|56:216,3,80
256,48,69638,6,2,B|256:168,1,80
256,208,70118,2,2,B|256:296,1,80
256,288,70598,1,2
256,288,70838,1,2
256,288,71078,1,2
96,288,71558,5,10
256,288,72038,1,2
256,288,72278,1,2
256,288,72518,1,10
256,288,72758,2,2,B|256:176,1,80,2|6
256,48,73478,6,2,B|256:216,1,160
256,208,74438,5,10
400,136,74919,1,2
256,208,75399,1,10
400,280,75879,1,2
256,208,76359,1,10
112,136,76839,1,2
256,208,77319,1,10
112,280,77799,5,2
112,280,78039,1,2
112,280,78279,1,2
112,280,78519,1,2
112,280,78759,1,2
112,120,79239,1,10
256,192,79719,5,2
256,192,79959,1,2
256,192,80199,1,2
256,192,80439,1,2
256,192,80679,1,2
256,32,81159,1,10
416,32,81639,5,2
416,32,81879,1,2
416,32,82119,1,2
416,32,82359,1,2
416,32,82599,1,2
416,192,83079,1,10
256,192,83559,5,2
256,192,83799,1,2
256,192,84039,1,2
256,192,84279,1,2
256,192,84519,1,2
256,32,84999,1,6
96,192,93159,5,0
176,192,93399,1,0
256,192,93639,1,0
336,192,93879,1,0
416,192,94119,1,0
416,32,94599,1,8
416,192,95079,1,0
256,192,95559,5,0
256,192,95799,1,0
256,192,96039,1,0
256,192,96279,1,0
256,272,96519,1,4
416,272,96999,5,0
336,272,97239,1,0
256,272,97479,1,0
176,272,97719,1,0
96,272,97959,1,0
96,112,98439,1,8
96,272,98919,1,0
256,272,99399,5,0
256,272,99639,1,0
256,272,99879,1,0
256,272,100119,1,0
256,192,100359,1,4
96,192,100839,6,0,C|72:96|72:96|136:72,1,160
111,82,101799,1,2
272,80,102279,1,2
112,81,102759,1,2
272,80,103239,1,2
184,216,103719,1,2
424,216,104440,5,2
424,216,104680,1,2
424,216,104920,1,2
344,216,105160,1,2
344,216,105400,1,2
344,216,105640,1,10
184,216,106120,1,10
344,216,106600,1,10
96,192,108520,6,12,C|96:288,1,80,12|0
176,272,109000,2,12,C|264:272,1,80,12|0
336,272,109480,2,12,C|336:160,1,80,12|0
336,112,109960,1,12
336,272,110440,1,12
176,272,110920,5,2
176,272,111160,1,2
176,272,111400,1,2
176,272,111640,1,2
176,272,111880,1,6
416,192,112360,6,12,C|416:288,1,80,12|0
336,272,112840,2,12,C|248:272,1,80,12|0
176,272,113320,2,12,C|176:160,1,80,12|0
176,112,113800,1,12
176,272,114280,1,12
336,272,114760,5,2
336,272,115000,1,2
336,272,115240,1,2
336,272,115480,1,2
336,272,115720,1,6
336,112,116200,6,0,C|152:112,2,160,2|8|2
336,272,117640,2,2,C|240:272,1,80,2|2
176,272,118120,2,0,C|80:272,3,80
256,192,119560,12,4,122440
80,72,122920,6,4,C|424:72,1,320,0|4
400,200,124360,1,8
400,200,124600,1,8
400,200,124840,1,8
240,200,125320,5,8
80,200,125800,1,8
80,200,126040,1,8
80,200,126280,1,8
80,200,126520,1,12
256,40,127240,6,8,C|256:224,1,160
416,200,128200,1,8
416,200,128440,1,8
416,200,128680,1,8
256,200,129160,1,8
416,200,129640,6,8,C|96:200,1,320
96,40,131080,5,2
96,40,131320,1,2
96,40,131560,2,2,C|96:144,1,80
96,200,132040,1,2
176,200,132280,1,2
256,200,132520,1,2
416,200,133000,5,10
416,40,133480,1,2
416,40,133721,1,10
416,120,133961,1,2
416,120,134201,2,2,C|320:120,1,80,2|2
256,208,134921,5,10
400,136,135402,1,2
256,208,135882,1,10
400,280,136362,1,2
256,208,136842,1,10
112,136,137322,1,2
256,208,137802,1,10
120,288,138281,1,2
256,208,138761,1,10
120,288,139241,5,2
120,288,139481,1,2
120,288,139721,1,2
120,288,139961,1,2
120,288,140201,1,2
120,128,140681,1,10
264,200,141161,5,2
264,200,141401,1,2
264,200,141641,1,2
264,200,141881,1,2
264,200,142121,1,2
264,40,142601,1,10
424,40,143081,5,2
424,40,143321,1,2
424,40,143561,1,2
424,40,143801,1,2
424,40,144041,1,2
424,200,144521,1,8
264,200,145001,5,2
264,200,145241,1,2
264,200,145481,1,2
264,200,145721,1,2
264,200,145961,6,2,C|264:40,8,160
424,200,150281,1,8
264,200,150761,6,2,C|264:16,2,160
104,200,152201,1,8
264,200,152681,6,2,C|264:368,1,160
264,200,153641,2,2,C|264:40,1,160
256,192,168762,5,8
256,192,169002,1,8
256,192,169242,1,8
256,192,169482,1,8
256,192,169722,1,8
256,192,169962,2,8,C|144:192,1,80
96,192,170442,5,8
96,192,170682,1,8
96,192,170922,1,8
176,56,171402,1,8
336,56,171882,1,8
392,112,172122,1,8
416,184,172362,1,8
336,184,172602,2,8,C|248:184,2,80,0|4|0
256,184,173322,5,8
256,184,173562,1,8
256,184,173802,1,8
256,184,174042,1,8
256,184,174282,1,8
256,184,174522,2,8,C|368:184,1,80
416,184,175002,5,8
416,184,175242,1,8
416,184,175482,1,8
392,104,175722,1,0
336,48,175962,1,8
256,32,176202,5,0
176,48,176442,1,8
120,104,176682,1,8
96,176,176922,1,8
176,176,177162,2,2,C|264:176,12,80
256,176,180282,2,2,C|432:176,1,160
256,192,181002,12,2,182922
136,64,183402,5,0
216,64,183642,1,0
296,64,183882,1,0
376,64,184122,1,4
376,304,184842,6,0,B|256:208|256:208|104:328,1,320
256,192,186042,12,0,188202
136,80,188682,6,0,B|256:176|256:176|408:56,1,320
256,192,189882,12,0,192042
256,48,192523,5,0
256,128,192763,1,0
256,208,193003,1,0
256,192,193483,12,0,195883
136,192,196363,5,2
136,192,196603,1,2
136,192,196843,2,2,B|232:192,1,80
376,192,197563,5,2
376,192,197803,2,2,B|280:192,1,80
136,192,198523,5,2
136,192,198763,2,2,B|240:192,1,80
376,192,199483,5,2
376,192,199723,2,2,B|272:192,1,80
