osu file format v5

[General]
AudioFilename: SS-MTS.mp3
AudioLeadIn: 0
PreviewTime: -1
Countdown: 1
SampleSet: Normal
StackLeniency: 0.7
Mode: 0
LetterboxInBreaks: 1
EditorBookmarks: 10766,11594,13249,16145,17387,21938,24007,24835,30628,37662,38490,39731,40973,41249,41387,41800,44697,47180,47869,55042
EditorDistanceSpacing: 0.800000011920929

[Metadata]
Title:Spectacular Spider-Man Theme Song
Artist:The Tender Box
Creator:Rearmed
Version:Easy
Source:Spectacular Spider-Man
Tags:Television Cartoons Spider-Man

[Difficulty]
HPDrainRate:5
CircleSize:4
OverallDifficulty:5
SliderMultiplier:1.4
SliderTickRate:1

[Events]
//Background and Video events
1,2000,"Spiderman.wmv"
//Break Periods
//Storyboard Layer 0 (Background)
//Storyboard Layer 1 (Failing)
//Storyboard Layer 2 (Passing)
//Storyboard Layer 3 (Foreground)
//Storyboard Sound Samples
//Background Colour Transformations
3,100,163,162,255

[TimingPoints]
4179.62682074942,413.793103448276,4,1,0,100,1,0

[Colours]
Combo1 : 0,0,0
Combo2 : 255,255,255
Combo3 : 5,5,240
Combo4 : 240,5,5

[HitObjects]
332,50,11627,2,0,B|488:50,2,140
216,48,12869,1,0
104,48,13283,1,0
112,160,13696,5,0
224,160,14110,2,8,B|368:160,1,140
416,256,14938,1,0
320,312,15352,2,8,B|160:312,1,140
88,240,16179,6,8,B|64:200|112:96,3,140
165,296,18662,6,0,B|300:216,2,140,0|8|0
116,194,19903,2,0,B|357:29,1,280,0|8
457,58,21145,1,4
400,272,21972,6,0,B|368:328|272:304,2,140,0|0|8
368,160,23214,2,0,B|296:152|248:224,2,140,8|0|0
332,334,24869,6,0,B|488:334,2,140
216,336,26110,1,0
104,336,26524,1,0
112,224,26938,5,0
224,224,27352,2,8,B|368:224,1,140
416,128,28179,1,0
320,72,28593,2,8,B|160:72,1,140
88,144,29421,6,8,B|64:184|112:288,3,140
165,88,31903,6,0,B|300:168,2,140,0|8|0
116,190,33145,2,0,B|357:355,1,280,0|8
457,326,34386,1,4
400,112,35214,6,0,B|368:56|272:80,2,140,0|0|8
368,224,36455,2,0,B|296:232|248:160,2,140,8|0|0
45,105,38524,6,0,B|80:152|102:161|178:162,2,140
86,0,39765,6,0,B|113:-7|163:-12|181:-3|223:25,2,140
160,84,41007,6,0,B|313:145,1,140
324,242,41834,6,0,B|289:289|267:298|191:299,2,140
283,137,43076,6,0,B|256:130|206:125|188:134|146:162,2,140
209,221,44317,6,0,B|56:282,1,140
9,184,45145,5,0
72,92,45558,1,0
164,28,45972,2,0,B|209:9|269:8|315:20|348:33|376:59|398:85|415:106|422:125|428:154|428:184|431:210|418:252,1,420
179,283,48041,5,0
200,192,48455,1,0
286,121,48869,1,0
397,129,49283,1,0
485,197,49696,5,8
402,272,50110,1,0
290,263,50524,1,0
203,192,50938,1,0
163,86,51352,5,8
265,40,51765,1,0
377,41,52179,1,0
436,136,52593,1,0
421,247,53007,1,8
315,285,53421,5,0
207,253,53834,1,0
137,165,54248,1,0
128,45,54662,1,8
213,118,55076,6,0,B|248:165|270:174|346:175,2,140
249,7,56317,6,0,B|276:0|326:-5|344:4|386:32,2,140
318,95,57558,6,0,B|471:156,1,140
417,254,58386,6,0,B|382:301|360:310|284:311,2,140
374,150,59627,6,0,B|347:143|297:138|279:147|237:175,2,140
312,244,60869,6,0,B|159:305,1,140
