osu file format v5

[General]
AudioFilename: Reptilia.mp3
AudioLeadIn: 0
PreviewTime: -1
Countdown: 2
SampleSet: Normal
StackLeniency: 0.7
Mode: 0
LetterboxInBreaks: 1
EditorBookmarks: 2000,34949,123676
EditorDistanceSpacing: 0.899999976158142

[Metadata]
Title:Reptilia
Artist:The Strokes
Creator:Hoplite
Version:Normal
Source:
Tags:

[Difficulty]
HPDrainRate:5
CircleSize:4
OverallDifficulty:5
SliderMultiplier:1.5
SliderTickRate:2

[Events]
//Background and Video events
1,0,"Reptilia clip.avi"
//Break Periods
2,43378,54558
2,115819,127426
//Storyboard Layer 0 (Background)
//Storyboard Layer 1 (Failing)
//Storyboard Layer 2 (Passing)
//Storyboard Layer 3 (Foreground)
//Storyboard Sound Samples
//Background Colour Transformations
3,100,163,162,255

[TimingPoints]
6770,379.765605095541,4,1,0,50,1,0

[HitObjects]
128,320,13172,5,2
256,320,13984,1,2
384,320,14744,1,2
32,32,16263,2,2,B|256:383|480:32,1,581.25
64,128,19301,5,0
64,320,19823,1,0
128,320,20393,1,8
448,128,20820,5,0
448,320,21342,1,0
384,320,21912,1,8
64,128,22339,5,0
64,320,22861,1,0
128,320,23431,1,8
448,128,23858,5,0
448,320,24381,1,0
384,320,24950,1,8
64,128,25377,5,0
64,320,25899,1,0
128,320,26469,1,8
448,128,26896,5,0
448,320,27418,1,0
384,320,27988,1,8
64,128,28415,5,0
64,320,28937,1,0
128,320,29507,1,8
448,128,29934,5,0
448,320,30457,1,0
384,320,31026,1,8
64,128,31453,5,0
64,320,31975,1,0
128,320,32545,1,8
448,128,32972,5,0
448,320,33494,1,0
384,320,34064,1,8
64,128,34491,5,0
64,320,35013,1,0
128,320,35583,1,8
448,128,36010,5,0
448,320,36533,1,0
384,320,37102,1,8
64,128,37529,5,0
64,320,38051,1,0
128,320,38621,1,8
448,128,39048,5,0
448,320,39570,1,0
384,320,40140,1,8
64,128,40567,5,0
64,320,41089,1,0
128,320,41659,1,8
448,128,42086,5,0
448,320,42609,1,0
384,320,43178,1,8
64,256,55758,5,0
64,64,56281,2,8,B|320:64,1,243.75
448,256,57277,5,0
448,64,57801,2,8,B|192:64,1,243.75
64,256,58796,5,0
64,64,59320,2,8,B|320:64,1,243.75
448,256,60315,5,0
448,64,60839,2,0,B|192:64,1,243.75
64,256,61834,5,0
64,64,62358,2,8,B|320:64,1,243.75
448,256,63353,5,0
448,64,63877,2,8,B|192:64,1,243.75
64,256,64872,5,0
64,64,65396,2,8,B|320:64,1,243.75
448,256,66391,5,0
448,64,66915,2,8,B|192:64,1,243.75
256,192,68196,5,0
256,192,68956,1,0
256,192,69715,1,0
256,192,70475,1,0
256,192,71187,1,0
256,192,71946,1,0
256,192,72706,1,0
256,192,73465,1,0
256,192,74225,1,0
256,192,74984,1,0
256,192,75744,1,0
256,192,76503,1,0
256,192,77263,1,0
256,192,77643,1,0
256,192,78023,1,0
256,192,78402,1,0
256,192,78782,1,0
256,192,79162,1,0
32,128,80158,6,0,B|288:128,1,243.75
480,128,81582,2,0,B|224:128,1,243.75
32,256,83006,2,0,B|288:256,1,243.75
480,256,84620,2,0,B|224:256,1,243.75
32,128,86139,6,0,B|288:128,1,243.75
480,128,87563,2,0,B|224:128,1,243.75
32,256,89178,2,0,B|288:256,1,243.75
480,256,90697,2,0,B|224:256,1,243.75
32,64,92122,5,0
160,64,92881,1,0
288,64,93641,1,0
416,64,94400,1,0
480,160,95160,5,0
352,160,95872,1,0
224,160,96631,1,0
160,160,97011,1,0
96,160,97391,1,0
32,256,98291,6,0,B|480:256,1,431.25
448,96,99811,6,0,B|32:96,1,393.75
64,256,101994,5,0
224,256,102421,1,0
384,256,102801,1,0
480,32,103608,6,0,B|32:32|32:352,1,618.75
32,64,105934,5,0
160,64,106694,1,0
288,64,107453,1,0
416,64,108213,1,0
480,288,108972,5,0
352,288,109732,1,0
224,288,110491,1,0
160,288,110824,1,0
96,288,111157,1,0
32,160,112010,5,0
96,96,112343,1,0
160,160,112676,1,0
288,160,113482,1,0
352,96,113815,1,0
416,160,114147,1,0
160,288,114954,1,0
224,224,115287,1,0
288,288,115619,1,0
32,128,128626,6,0,B|128:32|192:32,1,187.5
96,192,129385,1,0
160,192,129623,1,0
480,128,130097,6,0,B|384:32|320:32,1,187.5
416,192,130857,1,0
352,192,131094,1,0
32,128,131616,6,0,B|128:32|192:32,1,187.5
96,192,132376,1,0
160,192,132613,1,0
480,128,133135,6,0,B|384:32|320:32,1,187.5
416,192,133895,1,0
288,192,134322,1,0
32,32,134844,6,0,B|328:32,4,281.25
32,160,138405,6,0,B|376:160,1,337.5
256,192,141206,12,0,152219
64,256,153026,5,0
64,64,153548,1,0
160,64,154118,1,8
448,256,154545,5,0
448,64,155067,1,0
352,64,155590,1,8
64,256,156064,5,0
64,64,156539,1,0
160,64,157109,1,8
448,256,157536,5,0
448,64,158058,1,0
352,64,158628,1,8
64,256,159102,5,0
64,64,159625,1,0
160,64,160194,1,8
448,256,160622,5,0
448,64,161096,1,0
352,64,161666,1,8
64,256,162141,5,0
64,64,162615,1,0
160,64,163185,1,8
448,256,163612,5,0
448,64,164134,1,0
352,64,164704,1,8
256,192,165084,5,0
256,192,165748,1,0
256,192,166508,1,0
256,192,167267,1,0
256,192,168027,1,0
256,192,168787,1,0
256,192,169546,1,0
256,192,170306,1,0
256,192,171065,1,0
256,192,171777,1,0
256,192,172537,1,0
256,192,173296,1,0
256,192,174056,1,0
256,192,174815,1,0
256,192,175195,1,0
256,192,175575,1,0
256,192,175955,1,0
256,192,176334,1,0
256,192,176714,1,0
32,128,177236,6,0,B|288:128,1,243.75
480,128,178660,2,0,B|224:128,1,243.75
32,256,180180,2,0,B|288:256,1,243.75
480,256,181651,2,0,B|224:256,1,243.75
32,128,183313,6,0,B|288:128,1,243.75
480,128,184784,2,0,B|224:128,1,243.75
32,256,186303,2,0,B|288:256,1,243.75
480,256,187822,2,0,B|224:256,1,243.75
32,320,189388,5,2
160,320,190148,1,2
288,320,190907,1,2
416,320,191667,1,2
480,224,192426,5,2
352,224,193186,1,2
224,224,193945,1,2
160,224,194325,1,2
96,224,194705,1,2
32,256,195464,6,0,B|480:256,1,431.25
448,96,196936,6,0,B|32:96,1,393.75
64,256,198645,5,0
144,256,199215,1,0
384,256,199926,1,0
384,256,200354,1,0
384,256,200781,1,0
480,32,201636,6,0,B|32:32|32:352,1,618.75
96,320,203867,5,2
224,320,204579,1,2
352,320,205338,1,2
480,320,206098,1,2
416,96,206857,5,2
288,96,207617,1,2
160,96,208377,1,2
96,96,208756,1,2
32,96,209136,1,2
32,224,209516,5,2
96,288,209896,1,2
160,224,210275,1,2
288,224,211035,1,2
352,288,211415,1,2
416,224,211794,1,2
168,88,212554,1,2
232,152,212934,1,2
296,88,213313,1,2
256,192,214073,12,4,219912
