osu file format v5

[General]
AudioFilename: Reptilia.mp3
AudioLeadIn: 0
PreviewTime: -1
Countdown: 0
SampleSet: Normal
StackLeniency: 0.7
Mode: 0
LetterboxInBreaks: 1
EditorBookmarks: 2000,11009,11674,34094,34949,123676
EditorDistanceSpacing: 1

[Metadata]
Title:Reptilia
Artist:The Strokes
Creator:Hoplite
Version:Insane
Source:
Tags:

[Difficulty]
HPDrainRate:6
CircleSize:6
OverallDifficulty:8
SliderMultiplier:1.5
SliderTickRate:2

[Events]
//Background and Video events
1,0,"Reptilia clip.avi"
//Break Periods
2,43427,55103
2,116626,127829
//Storyboard Layer 0 (Background)
//Storyboard Layer 1 (Failing)
//Storyboard Layer 2 (Passing)
//Storyboard Layer 3 (Foreground)
//Storyboard Sound Samples
//Background Colour Transformations
3,100,163,162,255

[TimingPoints]
6770,379.763474193548,4,1,0,100,1,0

[HitObjects]
96,320,13133,5,2
192,320,13938,1,2
288,320,14697,1,2
384,320,15409,1,2
32,32,16169,2,2,B|194:32|496:32,1,450
482,32,17498,1,0
32,88,17735,2,2,B|490:90|496:88,1,450
480,88,19064,1,0
40,64,19302,5,0
40,112,19445,1,0
40,248,19777,1,0
117,249,20014,1,0
248,249,20394,1,8
472,64,20821,5,0
472,112,20964,1,0
472,248,21296,1,0
395,249,21533,1,0
264,249,21913,1,8
40,64,22340,5,0
40,112,22483,1,0
40,248,22815,1,0
117,249,23052,1,0
248,249,23432,1,8
472,64,23859,5,0
472,112,24002,1,0
472,248,24334,1,0
395,249,24571,1,0
264,249,24951,1,8
40,64,25378,5,0
40,112,25521,1,0
40,248,25853,1,0
117,249,26090,1,0
248,249,26470,1,8
472,64,26897,5,0
472,112,27040,1,0
472,248,27372,1,0
395,249,27609,1,0
264,249,27989,1,8
40,64,28416,5,0
40,112,28559,1,0
40,248,28891,1,0
117,249,29128,1,0
248,249,29508,1,8
472,64,29935,5,0
472,112,30078,1,0
472,248,30410,1,0
395,249,30647,1,0
264,249,31027,1,8
40,64,31454,5,0
40,112,31597,1,0
40,248,31929,1,0
117,249,32166,1,0
248,249,32546,1,8
472,64,32973,5,0
472,112,33116,1,0
472,248,33448,1,0
395,249,33685,1,0
264,249,34065,1,8
40,64,34492,5,0
40,112,34635,1,0
40,248,34967,1,0
117,249,35204,1,0
248,249,35584,1,8
472,64,36011,5,0
472,112,36154,1,0
472,248,36486,1,0
395,249,36723,1,0
264,249,37103,1,8
40,64,37530,5,0
40,112,37673,1,0
40,248,38005,1,0
117,249,38242,1,0
248,249,38622,1,8
472,64,39049,5,0
472,112,39192,1,0
472,248,39524,1,0
395,249,39761,1,0
264,249,40141,1,8
40,64,40568,5,0
40,112,40711,1,0
40,248,41043,1,0
117,249,41280,1,0
248,249,41660,1,8
472,64,42087,5,0
472,112,42230,1,0
472,248,42562,1,0
395,249,42799,1,0
264,249,43179,1,8
40,64,55759,5,0
40,112,55902,1,0
40,248,56234,1,0
117,249,56471,1,0
248,249,56851,1,8
472,64,57278,5,0
472,112,57421,1,0
472,248,57753,1,0
395,249,57990,1,0
264,249,58370,1,8
40,64,58797,5,0
40,112,58940,1,0
40,248,59272,1,0
117,249,59509,1,0
248,249,59889,1,8
472,64,60316,5,0
472,112,60459,1,0
472,248,60791,1,0
395,249,61028,1,0
264,249,61408,1,8
40,64,61835,5,0
40,112,61978,1,0
40,248,62310,1,0
117,249,62547,1,0
248,249,62927,1,8
472,64,63354,5,0
472,112,63497,1,0
472,248,63829,1,0
395,249,64066,1,0
264,249,64446,1,8
40,64,64873,5,0
40,112,65016,1,0
40,248,65348,1,0
117,249,65585,1,0
248,249,65965,1,8
472,64,66392,5,0
472,112,66535,1,0
472,248,66867,1,0
395,249,67104,1,0
264,249,67484,1,8
256,160,67816,5,0
256,160,68196,1,0
256,160,68576,1,0
256,224,68956,1,0
256,224,69336,1,0
256,288,69716,5,0
256,288,70095,1,0
256,288,70475,1,0
256,96,70855,1,0
256,96,71235,1,0
256,160,71614,5,0
256,160,71994,1,0
256,160,72374,1,0
256,224,72754,5,0
256,224,73134,1,0
256,224,73514,1,0
256,224,73894,1,0
256,224,74273,1,0
256,224,74653,1,0
256,224,75033,1,0
256,224,75413,1,0
256,160,75792,5,0
256,160,76172,1,0
256,160,76552,1,0
256,160,76931,5,0
256,160,77121,1,0
256,160,77311,1,0
256,224,77501,1,0
256,224,77691,1,0
256,160,77880,5,0
256,160,78070,1,0
256,160,78260,1,0
256,224,78450,1,0
256,224,78640,1,0
256,160,78830,5,0
256,160,79020,1,0
256,160,79210,1,0
256,224,79400,1,0
256,224,79590,1,0
32,224,80064,5,0
32,128,80254,2,0,B|160:128,1,112.5
288,224,80824,5,0
288,128,81014,2,0,B|416:128,1,112.5
480,224,81583,5,0
480,128,81773,2,0,B|352:128,1,112.5
224,224,82295,5,0
224,128,82485,2,0,B|96:128,1,112.5
32,224,83055,5,0
32,128,83245,2,0,B|160:128,1,112.5
288,224,83814,5,0
288,128,84004,2,0,B|416:128,1,112.5
32,32,84574,5,0
32,128,84763,2,0,B|160:128,1,112.5
288,32,85286,5,0
288,128,85476,2,0,B|416:128,1,112.5
32,224,86140,5,0
32,128,86330,2,0,B|160:128,1,112.5
288,224,86900,5,0
288,128,87090,2,0,B|416:128,1,112.5
480,224,87659,5,0
480,128,87849,2,0,B|352:128,1,112.5
224,224,88371,5,0
224,128,88561,2,0,B|96:128,1,112.5
32,224,89131,5,0
32,128,89321,2,0,B|160:128,1,112.5
288,224,89890,5,0
288,128,90080,2,0,B|416:128,1,112.5
32,32,90650,5,0
32,128,90792,2,0,B|160:128,1,112.5
288,32,91362,5,0
288,128,91552,2,0,B|416:128,1,112.5
32,64,92169,5,0
96,96,92386,1,0
160,64,92576,1,0
224,96,92766,1,0
288,64,92956,1,0
352,96,93146,1,0
416,64,93336,1,0
480,96,93545,1,0
480,96,93735,5,0
416,64,93925,1,0
352,96,94115,1,0
288,64,94305,1,0
224,96,94495,1,0
160,64,94685,1,0
96,96,94874,1,0
32,64,95064,1,0
32,192,95254,2,0,B|96:192,1,56.25
135,192,95492,1,0
128,192,95587,1,0
320,192,95824,2,0,B|384:192,1,56.25
32,320,96393,5,0
96,224,96631,2,0,B|256:224,1,150
96,224,97227,1,0
96,288,97370,1,0
96,288,97485,2,0,B|352:288,1,243.75
480,256,98292,2,0,B|32:256,1,431.25
256,192,99811,5,0
448,96,100026,6,0,B|32:96,1,393.75
32,64,101284,5,0
96,96,101501,1,0
160,64,101691,1,0
224,96,101881,1,0
288,64,102071,1,0
352,96,102261,1,0
416,64,102451,1,0
480,96,102612,1,0
352,96,102802,1,0
288,224,103514,5,0
128,160,103846,1,0
128,160,104321,2,0,B|576:160|192:320,1,450
32,32,105935,6,0,B|85:32,1,37.5
154,32,106268,2,0,B|202:32,1,37.5
288,32,106600,2,0,B|339:32,1,37.5
416,96,106932,6,0,B|366:94,1,37.5
288,96,107265,2,0,B|241:97,1,37.5
160,96,107597,2,0,B|109:95,1,37.5
96,160,107929,2,0,B|448:160,1,337.5
256,192,108973,12,0,110018
128,224,110302,5,0
192,224,110519,1,0
192,288,110709,1,0
128,288,110899,1,0
256,256,111089,1,0
320,224,111279,1,0
320,288,111469,1,0
384,256,111678,1,0
320,160,111869,5,0
224,128,112086,1,0
128,160,112276,1,0
224,128,112466,1,0
320,160,112656,1,0
224,224,112846,1,0
128,160,113036,1,0
64,288,113341,2,0,B|480:288,1,393.75
384,128,114812,5,0
384,128,115002,2,0,B|224:256,1,187.5
232,250,115762,1,0
232,250,116142,2,0,B|64:224,1,150
32,128,128579,6,0,B|128:32|192:32,1,187.5
96,192,129291,1,0
160,192,129480,1,0
224,192,129670,1,0
480,288,130003,6,0,B|384:192|320:192,1,187.5
416,352,130763,1,0
352,352,130953,1,0
288,352,131142,1,0
32,128,131522,6,0,B|128:32|192:32,1,187.5
96,192,132281,1,0
160,192,132471,1,0
224,192,132661,1,0
480,128,133041,6,0,B|384:32|320:32,1,187.5
416,192,133800,1,0
352,192,134133,2,0,B|242:192|192:192,1,150
32,32,134797,6,0,B|192:192,1,206.25
480,32,135557,6,0,B|320:192,1,206.25
32,32,136316,6,0,B|192:192,1,206.25
480,32,137028,6,0,B|320:192,1,206.25
32,352,137788,6,0,B|192:192,1,206.25
480,352,138547,6,0,B|320:192,1,206.25
24,144,139307,6,0,B|480:144,1,450
256,192,141063,12,0,152504
40,64,152978,5,0
40,112,153121,1,0
40,248,153453,1,0
117,249,153690,1,0
248,249,154070,1,8
472,64,154497,5,0
472,112,154640,1,0
472,248,154972,1,0
395,249,155209,1,0
264,249,155589,1,8
40,64,156016,5,0
40,112,156159,1,0
40,248,156491,1,0
117,249,156728,1,0
248,249,157108,1,8
472,64,157535,5,0
472,112,157678,1,0
472,248,158010,1,0
395,249,158247,1,0
264,249,158627,1,8
40,64,159054,5,0
40,112,159197,1,0
40,248,159529,1,0
117,249,159766,1,0
248,249,160146,1,8
472,64,160573,5,0
472,112,160716,1,0
472,248,161048,1,0
395,249,161285,1,0
264,249,161665,1,8
40,64,162092,5,0
40,112,162235,1,0
40,248,162567,1,0
117,249,162804,1,0
248,249,163184,1,8
472,64,163611,5,0
472,112,163754,1,0
472,248,164086,1,0
395,249,164323,1,0
264,249,164703,1,8
256,160,165035,5,0
256,160,165415,1,0
256,160,165795,1,0
256,224,166175,1,0
256,224,166555,1,0
256,288,166935,5,0
256,288,167314,1,0
256,288,167694,1,0
256,96,168074,1,0
256,96,168454,1,0
256,160,168833,5,0
256,160,169213,1,0
256,160,169593,1,0
256,224,169973,5,0
256,224,170353,1,0
256,224,170733,1,0
256,224,171113,1,0
256,224,171492,1,0
256,224,171872,1,0
256,224,172252,1,0
256,224,172632,1,0
256,160,173011,5,0
256,160,173391,1,0
256,160,173771,1,0
256,160,174150,5,0
256,160,174340,1,0
256,160,174530,1,0
256,224,174720,1,0
256,224,174910,1,0
256,160,175099,5,0
256,160,175289,1,0
256,160,175479,1,0
256,224,175669,1,0
256,224,175859,1,0
256,160,176049,5,0
256,160,176239,1,0
256,160,176429,1,0
256,224,176619,1,0
256,224,176809,1,0
32,224,177283,5,0
32,128,177473,2,0,B|160:128,1,112.5
288,224,178043,5,0
288,128,178233,2,0,B|416:128,1,112.5
480,224,178802,5,0
480,128,178992,2,0,B|352:128,1,112.5
224,224,179514,5,0
224,128,179704,2,0,B|96:128,1,112.5
32,224,180274,5,0
32,128,180464,2,0,B|160:128,1,112.5
288,224,181033,5,0
288,128,181223,2,0,B|416:128,1,112.5
32,32,181793,5,0
32,128,181982,2,0,B|160:128,1,112.5
288,32,182505,5,0
288,128,182695,2,0,B|416:128,1,112.5
32,224,183359,5,0
32,128,183549,2,0,B|160:128,1,112.5
288,224,184119,5,0
288,128,184309,2,0,B|416:128,1,112.5
480,224,184878,5,0
480,128,185068,2,0,B|352:128,1,112.5
224,224,185590,5,0
224,128,185780,2,0,B|96:128,1,112.5
32,224,186350,5,0
32,128,186540,2,0,B|160:128,1,112.5
288,224,187109,5,0
288,128,187299,2,0,B|416:128,1,112.5
32,32,187869,5,0
32,128,188011,2,0,B|160:128,1,112.5
288,32,188581,5,0
288,128,188771,2,0,B|416:128,1,112.5
32,64,189388,5,0
96,96,189605,1,0
160,64,189795,1,0
224,96,189985,1,0
288,64,190175,1,0
352,96,190365,1,0
416,64,190555,1,0
480,96,190764,1,0
480,96,190954,5,0
416,64,191144,1,0
352,96,191334,1,0
288,64,191524,1,0
224,96,191714,1,0
160,64,191904,1,0
96,96,192093,1,0
32,64,192283,1,0
32,192,192473,2,0,B|96:192,1,56.25
135,192,192711,1,0
128,192,192806,1,0
320,192,193043,2,0,B|384:192,1,56.25
32,320,193612,5,0
96,224,193850,2,0,B|256:224,1,150
96,224,194420,1,0
96,288,194589,1,0
96,288,194704,2,0,B|352:288,1,243.75
480,256,195512,2,0,B|32:256,1,431.25
256,192,197030,5,0
448,96,197245,6,0,B|32:96,1,393.75
32,64,198503,5,0
96,96,198720,1,0
160,64,198910,1,0
224,96,199100,1,0
288,64,199290,1,0
352,96,199480,1,0
416,64,199670,1,0
480,96,199831,1,0
352,96,200021,1,0
288,224,200733,5,0
128,160,201065,1,0
128,160,201540,2,0,B|576:160|192:320,1,450
32,32,203154,6,0,B|85:32,1,37.5
154,32,203487,2,0,B|202:32,1,37.5
288,32,203819,2,0,B|339:32,1,37.5
416,96,204151,6,0,B|366:94,1,37.5
288,96,204484,2,0,B|241:97,1,37.5
160,96,204816,2,0,B|109:95,1,37.5
96,160,205148,2,0,B|448:160,1,337.5
256,192,206192,12,0,207237
128,224,207521,5,0
192,224,207738,1,0
192,288,207928,1,0
128,288,208118,1,0
256,256,208308,1,0
320,224,208498,1,0
320,288,208688,1,0
384,256,208897,1,0
320,160,209088,5,0
224,128,209305,1,0
128,160,209495,1,0
224,128,209685,1,0
320,160,209875,1,0
224,224,210065,1,0
128,160,210255,1,0
64,288,210560,2,0,B|480:288,1,393.75
384,128,212031,5,0
384,128,212221,2,0,B|224:256,1,187.5
232,250,212981,1,0
232,250,213361,2,0,B|64:224,1,150
256,192,213978,12,4,219864
