osu file format v5

[General]
AudioFilename: Reptilia.mp3
AudioLeadIn: 0
PreviewTime: -1
Countdown: 2
SampleSet: Normal
StackLeniency: 0.7
Mode: 0
LetterboxInBreaks: 1
EditorBookmarks: 2000,34949,123676
EditorDistanceSpacing: 0.899999976158142

[Metadata]
Title:Reptilia
Artist:The Strokes
Creator:Hoplite
Version:Hard
Source:
Tags:

[Difficulty]
HPDrainRate:7
CircleSize:5
OverallDifficulty:7
SliderMultiplier:1.5
SliderTickRate:2

[Events]
//Background and Video events
1,0,"Reptilia clip.avi"
//Break Periods
2,43415,54786
2,116791,127580
//Storyboard Layer 0 (Background)
//Storyboard Layer 1 (Failing)
//Storyboard Layer 2 (Passing)
//Storyboard Layer 3 (Foreground)
//Storyboard Sound Samples
//Background Colour Transformations
3,100,163,162,255

[TimingPoints]
6770,379.77087157415,4,1,0,50,1,0

[HitObjects]
128,320,13153,5,2
256,320,13913,1,2
384,320,14673,1,2
32,32,16193,2,2,B|255:32|256:32,1,206.25
256,32,17328,2,2,B|479:32|480:32,1,206.25
128,96,18277,2,2,B|162:97|216:96,1,75
256,96,18704,2,2,B|290:97|344:96,1,75
64,128,19254,5,0
64,192,19444,1,0
64,320,19824,1,0
256,320,20435,1,8
448,128,20821,5,0
448,192,21011,1,0
448,320,21391,1,0
256,320,21906,1,8
64,128,22340,5,0
64,192,22530,1,0
64,320,22910,1,0
256,320,23424,1,8
448,128,23859,5,0
448,192,24049,1,0
448,320,24429,1,0
256,320,24942,1,8
64,128,25378,5,0
64,192,25568,1,0
64,320,25948,1,0
256,320,26460,1,8
448,128,26897,5,0
448,192,27087,1,0
448,320,27467,1,0
256,320,27978,1,8
64,128,28416,5,0
64,192,28606,1,0
64,320,28986,1,0
256,320,29549,1,8
448,128,29936,5,0
448,192,30126,1,0
448,320,30506,1,0
256,320,31015,1,8
64,128,31455,5,0
64,192,31645,1,0
64,320,32024,1,0
256,320,32546,1,8
448,128,32967,5,0
448,192,33157,1,0
448,320,33537,1,0
256,320,34113,1,8
64,128,34493,5,0
64,192,34683,1,0
64,320,35063,1,0
256,320,35578,1,8
448,128,36012,5,0
448,192,36202,1,0
448,320,36582,1,0
256,320,37096,1,8
64,128,37531,5,0
64,192,37721,1,0
64,320,38101,1,0
256,320,38614,1,8
448,128,39050,5,0
448,192,39240,1,0
448,320,39620,1,0
256,320,40132,1,8
64,128,40569,5,0
64,192,40759,1,0
64,320,41139,1,0
256,320,41650,1,8
448,128,42088,5,0
448,192,42278,1,0
448,320,42658,1,0
256,320,43168,1,8
448,256,55760,6,0,B|448:192,1,56.25
448,64,56282,1,0
256,64,56824,1,8
64,256,57232,6,0,B|64:192,1,56.25
64,64,57802,1,0
256,64,58343,1,8
448,256,58798,6,0,B|448:192,1,56.25
448,64,59322,1,0
256,64,59890,1,8
64,256,60272,5,0
64,192,60462,1,0
64,64,60842,1,0
256,64,61457,1,8
448,256,61836,5,0
448,192,62026,1,0
448,64,62362,1,0
256,64,62976,1,8
64,256,63308,6,0,B|64:192,1,56.25
64,64,63925,1,0
256,64,64447,1,8
448,256,64874,5,0
448,192,65064,1,0
448,64,65444,1,0
256,64,65981,1,8
64,256,66346,6,0,B|64:192,1,56.25
64,64,66963,1,0
256,64,67485,1,8
256,192,68014,5,0
256,192,68197,1,0
256,192,68387,1,0
256,192,68577,1,0
256,192,68774,1,0
256,192,68957,1,0
256,192,69147,1,0
256,192,69337,1,0
256,128,69527,5,0
256,128,69710,1,0
256,128,69900,1,0
256,128,70090,1,0
256,128,70287,1,0
256,128,70470,1,0
256,128,70660,1,0
256,128,70850,1,0
192,192,71046,2,0,B|320:192,1,112.5
256,256,71520,5,0
256,256,71703,1,0
256,256,71893,1,0
256,256,72083,1,0
256,256,72280,1,0
256,256,72463,1,0
256,256,72653,1,0
256,256,72843,1,0
320,96,72992,6,0,B|192:96,1,112.5
192,192,73419,2,0,B|320:192,1,112.5
384,96,73894,5,0
384,96,74077,1,0
384,96,74267,1,0
384,96,74457,1,0
384,96,74654,1,0
384,96,74837,1,0
384,96,75027,1,0
384,96,75176,2,0,B|256:-32|32:352,1,487.5
32,352,76695,2,0,B|128:256,1,131.25
256,128,77170,5,0
256,128,77360,1,0
256,128,77550,1,0
256,128,77740,1,0
256,128,77937,1,0
256,128,78120,1,0
256,128,78310,1,0
256,128,78500,1,0
256,128,78689,1,0
256,128,78872,1,0
256,128,79062,1,0
256,128,79252,1,0
256,128,79448,1,0
256,128,79638,1,0
32,224,80032,5,0
32,128,80222,2,0,B|288:128,1,243.75
275,128,81015,1,0
480,224,81394,5,0
480,128,81584,2,0,B|224:128,1,243.75
32,128,82534,1,0
32,352,82866,5,0
32,256,83056,2,0,B|288:256,1,243.75
480,256,84053,1,0
32,224,84433,5,0
32,128,84623,2,0,B|288:128,1,243.75
480,128,85619,1,0
32,224,86094,5,0
32,128,86284,2,0,B|288:128,1,243.75
275,128,87077,1,0
480,224,87456,5,0
480,128,87646,2,0,B|224:128,1,243.75
32,128,88596,1,0
32,352,88928,5,0
32,256,89118,2,0,B|288:256,1,243.75
480,256,90115,1,0
32,224,90495,5,0
32,128,90685,2,0,B|288:128,1,243.75
480,128,91681,1,0
32,64,92076,5,0
96,64,92293,1,0
160,64,92483,1,0
224,64,92673,1,0
288,64,92863,1,0
352,64,93053,1,0
416,64,93243,1,0
480,64,93452,1,0
480,128,93642,5,0
416,128,93832,1,0
352,128,94022,1,0
288,128,94212,1,0
224,128,94402,1,0
160,128,94592,1,0
96,128,94781,1,0
32,128,94971,1,0
32,192,95161,2,0,B|96:192,1,56.25
128,192,95446,2,0,B|192:192,1,56.25
224,192,95731,2,0,B|288:192,1,56.25
32,320,96300,5,0
96,224,96517,1,0
160,320,96707,1,0
224,224,96897,1,0
288,320,97087,1,0
352,224,97277,1,0
416,320,97467,1,0
480,224,97676,1,0
480,256,98199,2,0,B|32:256,1,431.25
256,192,99718,5,0
448,96,99933,6,0,B|32:96,1,393.75
32,352,101332,6,0,B|480:352|480:96,1,562.5
479,113,103184,1,0
320,96,103564,1,0
480,32,103896,1,0
480,32,104371,6,0,B|32:32|416:192,1,450
32,64,105985,5,0
96,64,106202,1,0
160,64,106392,1,0
224,64,106582,1,0
288,64,106772,1,0
352,64,106962,1,0
416,64,107152,1,0
480,64,107361,1,0
480,128,107551,5,0
416,128,107741,1,0
352,128,107931,1,0
288,128,108121,1,0
224,128,108311,1,0
160,128,108501,1,0
96,128,108690,1,0
32,128,108880,1,0
32,192,109070,2,0,B|96:192,1,56.25
128,192,109355,2,0,B|192:192,1,56.25
224,192,109640,2,0,B|288:192,1,56.25
32,320,110209,5,0
96,224,110426,1,0
160,320,110616,1,0
224,224,110806,1,0
288,320,110996,1,0
224,224,111186,1,0
416,320,111376,1,0
480,224,111585,1,0
320,160,111776,5,0
224,128,111993,1,0
128,160,112183,1,0
224,128,112373,1,0
320,160,112563,1,0
224,224,112753,1,0
128,160,112943,1,0
64,288,113248,2,0,B|480:288,1,393.75
384,128,115004,6,0,B|224:256,1,187.5
232,250,115764,1,0
232,250,116144,2,0,B|224:96,1,150
32,128,128480,6,0,B|128:32|192:32,1,187.5
96,192,129240,1,0
160,192,129430,1,0
224,192,129620,1,0
480,128,130000,6,0,B|384:32|320:32,1,187.5
416,192,130760,1,0
352,192,130950,1,0
288,192,131140,1,0
32,128,131520,6,0,B|128:32|192:32,1,187.5
96,192,132280,1,0
160,192,132470,1,0
224,192,132660,1,0
480,128,133040,6,0,B|384:32|320:32,1,187.5
416,192,133800,1,0
352,192,134230,2,0,B|224:256,1,131.25
32,32,134845,6,0,B|192:192,1,206.25
480,32,135559,6,0,B|320:192,1,206.25
32,32,136271,6,0,B|192:192,1,206.25
480,32,136983,6,0,B|320:192,1,206.25
32,352,137696,6,0,B|256:352,1,206.25
480,352,138408,6,0,B|256:352,1,206.25
256,32,139310,6,0,B|256:352,1,300
256,192,140640,12,0,152420
64,256,152990,5,0
64,192,153180,1,0
64,64,153560,1,0
256,64,154093,1,8
448,256,154510,5,0
448,192,154700,1,0
448,64,155080,1,0
256,64,155640,1,8
64,256,156030,5,0
64,192,156220,1,0
64,64,156600,1,0
256,64,157131,1,8
448,256,157550,5,0
448,192,157740,1,0
448,64,158120,1,0
256,64,158650,1,8
64,256,159070,5,0
64,192,159260,1,0
64,64,159640,1,0
256,64,160169,1,8
448,256,160590,5,0
448,192,160780,1,0
448,64,161160,1,0
256,64,161688,1,8
64,256,162110,5,0
64,192,162300,1,0
64,64,162680,1,0
256,64,163208,1,8
448,256,163630,5,0
448,192,163820,1,0
448,64,164200,1,0
256,64,164727,1,8
256,192,165269,5,0
256,192,165452,1,0
256,192,165642,1,0
256,192,165832,1,0
256,192,166029,1,0
256,192,166212,1,0
256,192,166402,1,0
256,192,166592,1,0
256,128,166782,5,0
256,128,166965,1,0
256,128,167155,1,0
256,128,167345,1,0
256,128,167542,1,0
256,128,167725,1,0
256,128,167915,1,0
256,128,168105,1,0
192,192,168301,2,0,B|320:192,1,112.5
256,256,168775,5,0
256,256,168958,1,0
256,256,169148,1,0
256,256,169338,1,0
256,256,169535,1,0
256,256,169718,1,0
256,256,169908,1,0
256,256,170098,1,0
320,96,170247,6,0,B|192:96,1,112.5
192,192,170674,2,0,B|320:192,1,112.5
384,96,171149,5,0
384,96,171332,1,0
384,96,171522,1,0
384,96,171712,1,0
384,96,171909,1,0
384,96,172092,1,0
384,96,172282,1,0
384,96,172431,2,0,B|256:-32|32:352,1,487.5
32,352,173950,2,0,B|128:256,1,131.25
256,128,174425,5,0
256,128,174615,1,0
256,128,174805,1,0
256,128,174995,1,0
256,128,175192,1,0
256,128,175375,1,0
256,128,175565,1,0
256,128,175755,1,0
256,128,175944,1,0
256,128,176127,1,0
256,128,176317,1,0
256,128,176507,1,0
256,128,176703,1,0
256,128,176893,1,0
32,224,177287,5,0
32,128,177477,2,0,B|288:128,1,243.75
275,128,178270,1,0
480,224,178649,5,0
480,128,178839,2,0,B|224:128,1,243.75
32,128,179789,1,0
32,352,180121,5,0
32,256,180311,2,0,B|288:256,1,243.75
480,256,181308,1,0
32,224,181688,5,0
32,128,181878,2,0,B|288:128,1,243.75
480,128,182874,1,0
32,224,183349,5,0
32,128,183539,2,0,B|288:128,1,243.75
275,128,184332,1,0
480,224,184711,5,0
480,128,184901,2,0,B|224:128,1,243.75
32,128,185851,1,0
32,352,186183,5,0
32,256,186373,2,0,B|288:256,1,243.75
480,256,187370,1,0
32,224,187750,5,0
32,128,187940,2,0,B|288:128,1,243.75
480,128,188936,1,0
32,64,189331,5,0
96,64,189548,1,0
160,64,189738,1,0
224,64,189928,1,0
288,64,190118,1,0
352,64,190308,1,0
416,64,190498,1,0
480,64,190707,1,0
480,128,190897,5,0
416,128,191087,1,0
352,128,191277,1,0
288,128,191467,1,0
224,128,191657,1,0
160,128,191847,1,0
96,128,192036,1,0
32,128,192226,1,0
32,192,192416,2,0,B|96:192,1,56.25
128,192,192701,2,0,B|192:192,1,56.25
224,192,192986,2,0,B|288:192,1,56.25
32,320,193555,5,0
96,224,193772,1,0
160,320,193962,1,0
224,224,194152,1,0
288,320,194342,1,0
352,224,194532,1,0
416,320,194722,1,0
480,224,194931,1,0
480,256,195454,2,0,B|32:256,1,431.25
256,192,196973,5,0
448,96,197188,6,0,B|32:96,1,393.75
32,352,198587,6,0,B|480:352|480:96,1,562.5
479,113,200439,1,0
320,96,200819,1,0
480,32,201151,1,0
480,32,201626,6,0,B|32:32|416:192,1,450
32,64,203240,5,0
32,64,203457,1,0
128,64,203647,1,0
128,64,203837,1,0
224,64,204027,1,0
224,64,204217,1,0
320,64,204407,1,0
320,64,204616,1,0
384,128,204806,5,0
384,128,204996,1,0
288,128,205186,1,0
288,128,205376,1,0
192,128,205566,1,0
192,128,205756,1,0
96,128,205945,1,0
96,128,206135,1,0
32,192,206325,2,0,B|96:192,1,56.25
224,192,206610,2,0,B|288:192,1,56.25
128,192,206895,2,0,B|192:192,1,56.25
32,320,207464,5,0
96,224,207681,1,0
224,224,207871,1,0
160,320,208061,1,0
416,320,208251,1,0
352,224,208441,1,0
288,320,208631,1,0
480,224,208840,1,0
320,160,209031,5,0
224,128,209248,1,0
128,160,209438,1,0
224,128,209628,1,0
320,160,209818,1,0
224,224,210008,1,0
128,160,210198,1,0
64,288,210503,2,0,B|480:288,1,393.75
384,128,212259,6,0,B|224:256,1,187.5
232,250,213019,1,0
232,250,213399,2,0,B|224:96,1,150
256,192,214144,12,4,219888
