osu file format v5

[General]
AudioFilename: Reptilia.mp3
AudioLeadIn: 0
PreviewTime: -1
Countdown: 2
SampleSet: Normal
StackLeniency: 0.7
Mode: 0
LetterboxInBreaks: 1
EditorBookmarks: 2000,34949,123676
EditorDistanceSpacing: 0.899999976158142

[Metadata]
Title:Reptilia
Artist:The Strokes
Creator:Hoplite
Version:Easy
Source:
Tags:

[Difficulty]
HPDrainRate:3
CircleSize:2
OverallDifficulty:2
SliderMultiplier:1.5
SliderTickRate:2

[Events]
//Background and Video events
1,-4,"Reptilia clip.avi"
//Break Periods
2,43332,54200
2,116676,127068
//Storyboard Layer 0 (Background)
//Storyboard Layer 1 (Failing)
//Storyboard Layer 2 (Passing)
//Storyboard Layer 3 (Foreground)
//Storyboard Sound Samples
//Background Colour Transformations
3,100,163,162,255

[TimingPoints]
7150,379.77087157415,4,1,0,50,1,0

[Colours]
Combo1 : 255,150,0
Combo2 : 5,240,5
Combo3 : 5,5,240
Combo4 : 240,5,5

[HitObjects]
128,320,13110,5,2
256,320,13938,1,2
384,320,14745,1,2
32,32,16148,2,2,B|256:352|480:32,1,562.5
64,128,19302,5,0
128,224,19824,1,0
192,128,20347,1,8
448,128,20821,5,0
384,224,21343,1,0
320,128,21865,1,8
64,128,22340,5,0
128,224,22862,1,0
192,128,23384,1,8
448,128,23859,5,0
384,224,24381,1,0
320,128,24903,1,8
64,128,25378,5,0
128,224,25900,1,0
192,128,26423,1,8
448,128,26897,5,0
384,224,27419,1,0
320,128,27941,1,8
64,128,28416,5,0
128,224,28938,1,0
192,128,29460,1,8
448,128,29935,5,0
384,224,30457,1,0
320,128,30979,1,8
64,128,31455,5,0
128,224,31977,1,0
192,128,32500,1,8
448,128,32974,5,0
384,224,33496,1,0
320,128,34018,1,8
64,128,34493,5,0
128,224,35015,1,0
192,128,35537,1,8
448,128,36012,5,0
384,224,36534,1,0
320,128,37056,1,8
64,128,37531,5,0
128,224,38053,1,0
192,128,38576,1,8
448,128,39050,5,0
384,224,39572,1,0
320,128,40094,1,8
64,128,40569,5,0
128,224,41091,1,0
192,128,41613,1,8
448,128,42088,5,0
384,224,42610,1,0
320,128,43132,1,8
64,128,55760,5,0
128,32,56282,2,8,B|288:192,1,206.25
448,128,57279,5,0
384,32,57801,2,8,B|224:192,1,206.25
64,128,58798,5,0
128,32,59320,2,8,B|288:192,1,206.25
448,128,60317,5,0
384,32,60839,2,8,B|224:192,1,206.25
64,128,61837,5,0
128,32,62359,2,8,B|288:192,1,206.25
448,128,63356,5,0
384,32,63878,2,8,B|224:192,1,206.25
64,128,64875,5,0
128,32,65397,2,8,B|288:192,1,206.25
448,128,66394,5,0
384,32,66916,2,8,B|224:192,1,206.25
256,192,68630,5,0
256,192,70102,1,0
256,192,71621,1,0
256,192,73141,1,0
256,192,74612,1,0
256,192,76132,1,0
256,192,76891,1,0
256,192,77264,1,0
256,192,77644,1,0
256,192,78024,1,0
256,192,78404,1,0
256,192,78783,1,0
256,192,79163,1,0
32,32,80113,6,0,B|384:32,1,337.5
32,128,81537,2,0,B|384:128,1,337.5
32,224,83008,2,0,B|384:224,1,337.5
32,320,84527,2,0,B|384:320,1,337.5
480,32,86141,6,0,B|128:32,1,337.5
480,128,87613,2,0,B|128:128,1,337.5
480,224,89132,2,0,B|128:224,1,337.5
480,320,90651,2,0,B|128:320,1,337.5
32,64,92218,5,0
160,64,92978,1,0
288,64,93690,1,0
416,64,94449,1,0
480,160,95256,5,0
352,160,95969,1,0
224,160,96728,1,0
96,160,97488,1,0
32,256,98247,6,0,B|480:256,1,431.25
448,96,99814,6,0,B|32:96,1,393.75
96,192,101807,5,0
416,192,102804,1,0
256,288,103232,1,0
352,288,103611,1,0
480,32,104418,6,0,B|32:32|32:352,1,618.75
32,64,106697,5,0
160,64,107457,1,0
288,64,108169,1,0
416,64,108928,1,0
480,160,109735,5,0
352,160,110448,1,0
224,160,111207,1,0
96,160,111967,1,0
480,320,112725,5,0
352,320,113485,1,0
224,320,114197,1,0
96,320,114956,1,0
32,224,115763,5,0
160,224,116476,1,0
32,128,128628,6,0,B|128:32|192:32,1,187.5
96,192,129340,1,0
192,192,129625,1,0
480,128,130100,6,0,B|384:32|320:32,1,187.5
416,192,130812,1,0
320,192,131096,1,0
32,128,131571,6,0,B|128:32|192:32,1,187.5
128,192,132331,1,0
224,192,132615,1,0
480,128,133091,6,0,B|384:32|320:32,1,187.5
416,192,133850,1,0
320,192,134135,1,0
32,32,134752,6,0,B|344:32,4,300
32,160,138409,6,0,B|464:160,1,412.5
256,192,141113,12,0,151842
64,128,152981,5,0
128,32,153503,1,0
192,128,154026,1,8
448,128,154500,5,0
384,32,155022,1,0
320,128,155544,1,8
64,128,156019,5,0
128,32,156541,1,0
192,128,157063,1,8
448,128,157538,5,0
384,32,158060,1,0
320,128,158582,1,8
64,128,159057,5,0
128,32,159579,1,0
192,128,160102,1,8
448,128,160576,5,0
384,32,161098,1,0
320,128,161620,1,8
64,128,162095,5,0
128,32,162617,1,0
192,128,163139,1,8
448,128,163614,5,0
384,32,164136,1,0
320,128,164658,1,8
256,192,165851,5,0
256,192,167323,1,0
256,192,168842,1,0
256,192,170362,1,0
256,192,171833,1,0
256,192,173353,1,0
256,192,174112,1,0
256,192,174485,1,0
256,192,174865,1,0
256,192,175245,1,0
256,192,175625,1,0
256,192,176004,1,0
256,192,176384,1,0
32,32,177334,6,0,B|384:32,1,337.5
32,128,178758,2,0,B|384:128,1,337.5
32,224,180229,2,0,B|384:224,1,337.5
32,320,181654,2,0,B|384:320,1,337.5
480,32,183362,6,0,B|128:32,1,337.5
480,128,184834,2,0,B|128:128,1,337.5
480,224,186401,2,0,B|128:224,1,337.5
480,320,187920,2,0,B|128:320,1,337.5
32,64,189439,5,0
160,64,190199,1,0
288,64,190911,1,0
416,64,191670,1,0
480,160,192477,5,0
352,160,193190,1,0
224,160,193949,1,0
96,160,194709,1,0
32,256,195468,6,0,B|480:256,1,431.25
448,96,197035,6,0,B|32:96,1,393.75
96,192,199028,5,0
416,192,200025,1,0
256,288,200453,1,0
352,288,200832,1,0
480,32,201639,6,0,B|32:32|32:352,1,618.75
32,64,203918,5,0
160,64,204678,1,0
288,64,205390,1,0
416,64,206149,1,0
480,160,206956,5,0
352,160,207669,1,0
224,160,208428,1,0
96,160,209188,1,0
480,320,209946,5,0
352,320,210706,1,0
224,320,211418,1,0
96,320,212177,1,0
32,224,212984,5,0
160,224,213697,1,0
256,192,214124,12,4,219821
