osu file format v5

[General]
AudioFilename: golden-brown.mp3
AudioLeadIn: 0
PreviewTime: -1
Countdown: 1
SampleSet: Soft

[Metadata]
Title:Golden Brown
Artist:The Stranglers
Creator:Mr. Am/Pm
Version:Normal

[Difficulty]
HPDrainRate:5
CircleSize:5
OverallDifficulty:5
SliderMultiplier:1.4
SliderTickRate:2

[Events]
//Background and Video events
0,0,"bg.jpg"
//Break Periods
2,35406,39127
2,54608,75131
2,90612,146658
2,162620,169381
//Storyboard Layer 0 (Background)
//Storyboard Layer 1 (Failing)
//Storyboard Layer 2 (Passing)
//Storyboard Layer 3 (Foreground)
//Storyboard Sound Samples
//Background Colour Transformations
3,100,163,162,255

[TimingPoints]
21130,320.034136974611,4,2,0,100

[HitObjects]
128,96,21130,1,0
224,96,21450,1,0
320,96,21770,2,0,B|448:160|448:224|320:288,1,280
224,288,22730,1,0
96,288,23050,1,0
96,160,23370,1,0
96,32,23690,1,0
448,288,24970,5,0
320,288,25290,1,0
192,288,25610,2,0,B|96:192|96:128|224:32,1,280
192,160,26570,1,0
288,160,26890,1,0
384,160,27210,1,0
480,160,27530,2,0,B|320:64|224:288|64:160,1,420
32,256,28810,5,0
128,256,29130,1,0
224,256,29450,2,0,B|416:256|416:32,1,280
288,96,30410,1,0
192,128,30731,1,0
128,224,31051,1,0
96,320,31371,1,0
416,320,32331,5,0
416,192,32651,1,0
416,64,32971,2,0,B|256:320|96:64,1,420
96,192,34251,1,0
96,288,34571,1,0
192,288,34891,1,0
288,288,35211,1,0
384,288,40332,5,0
288,288,40652,1,0
192,288,40972,2,0,B|64:224|64:160|192:96,1,280
288,96,41932,1,0
416,96,42252,1,0
416,224,42572,1,0
416,352,42892,1,0
64,96,44172,5,0
192,96,44492,1,0
320,96,44812,2,0,B|416:192|416:256|288:352,1,280
320,224,45772,1,0
224,224,46092,1,0
128,224,46412,1,0
32,224,46732,2,0,B|192:320|288:96|448:224,1,420
480,128,48012,5,0
384,128,48332,1,0
288,128,48652,2,0,B|96:128|96:352,1,280
224,288,49612,1,0
320,256,49933,1,0
384,160,50253,1,0
416,64,50573,1,0
96,64,51533,5,0
96,192,51853,1,0
96,320,52173,2,0,B|256:64|416:320,1,420
416,192,53453,1,0
416,96,53773,1,0
320,96,54093,1,0
224,96,54413,1,0
384,96,76335,5,0
288,96,76655,1,0
192,96,76975,2,0,B|64:160|64:224|192:288,1,280
288,288,77935,1,0
416,288,78255,1,0
416,160,78575,1,0
416,32,78895,1,0
64,288,80175,5,0
192,288,80495,1,0
320,288,80815,2,0,B|416:192|416:128|288:32,1,280
320,160,81775,1,0
224,160,82095,1,0
128,160,82415,1,0
32,160,82735,2,0,B|192:64|288:288|448:160,1,420
480,256,84015,5,0
384,256,84335,1,0
288,256,84655,2,0,B|96:256|96:32,1,280
224,96,85615,1,0
320,128,85936,1,0
384,224,86256,1,0
416,320,86576,1,0
96,320,87536,5,0
96,192,87856,1,0
96,64,88176,2,0,B|256:320|416:64,1,420
416,192,89456,1,0
416,288,89776,1,0
320,288,90096,1,0
224,288,90416,1,0
256,192,148018,12,0,153779
256,192,155699,12,0,158259
256,192,159540,12,0,162420
128,64,170585,2,0,B|384:64|384:320,1,385
383,289,171626,2,0,B|128:288|128:64,1,385
448,64,173466,1,0
448,160,173786,1,0
448,256,174106,1,0
384,320,174426,6,0,B|128:320|128:96,1,385
128,100,175466,2,0,B|384:96|384:320,1,385
32,320,177306,1,0
32,192,177626,1,0
32,64,177946,1,0
128,64,178266,6,0,B|352:64|384:320,1,385
381,300,179306,2,0,B|128:288|128:32,1,385
448,96,181147,1,0
320,96,181467,1,0
192,96,181787,1,0
64,96,182107,2,0,B|96:320|352:288,1,385
341,289,183147,2,0,B|320:64|32:96,1,385
384,192,184987,6,0,B|96:192,1,280
256,192,185942,12,0,189783
