osu file format v5

[General]
AudioFilename: golden-brown.mp3
AudioLeadIn: 0
PreviewTime: -1
Countdown: 1
SampleSet: Soft

[Metadata]
Title:Golden Brown
Artist:The Stranglers
Creator:Mr. Am/Pm
Version:Easy

[Difficulty]
HPDrainRate:3
CircleSize:4
OverallDifficulty:2
SliderMultiplier:0.8
SliderTickRate:1

[Events]
//Background and Video events
0,0,"bg.jpg"
//Break Periods
2,35411,38772
2,54613,74775
2,90616,146463
2,162625,169025
//Storyboard Layer 0 (Background)
//Storyboard Layer 1 (Failing)
//Storyboard Layer 2 (Passing)
//Storyboard Layer 3 (Foreground)
//Storyboard Sound Samples
//Background Colour Transformations
3,100,163,162,255

[TimingPoints]
21130,320.034136974611,4,2,0,100

[HitObjects]
64,128,21130,1,0
64,192,21450,1,0
64,256,21770,1,0
96,64,22730,2,0,B|352:64,1,240
480,256,24970,5,0
480,192,25290,1,0
480,128,25610,1,0
416,320,26570,2,0,B|160:320,1,240
64,160,28490,5,0
128,160,28810,1,0
192,160,29130,1,0
256,160,29450,1,0
416,64,30410,2,0,B|416:320,1,240
288,160,32331,5,0
352,160,32651,1,0
416,160,32971,1,0
480,160,33291,1,0
384,320,34251,2,0,B|128:320,1,240
448,256,40332,5,0
448,192,40652,1,0
448,128,40972,1,0
416,320,41932,2,0,B|160:320,1,240
32,128,44172,5,0
32,192,44492,1,0
32,256,44812,1,0
96,64,45772,2,0,B|352:64,1,240
448,224,47692,5,0
384,224,48012,1,0
320,224,48332,1,0
256,224,48652,1,0
96,320,49612,2,0,B|96:64,1,240
224,224,51533,5,0
160,224,51853,1,0
96,224,52173,1,0
32,224,52493,1,0
128,64,53453,2,0,B|384:64,1,240
64,128,76335,5,0
64,192,76655,1,0
64,256,76975,1,0
96,64,77935,2,0,B|352:64,1,240
480,256,80175,5,0
480,192,80495,1,0
480,128,80815,1,0
416,320,81775,2,0,B|160:320,1,240
64,160,83695,5,0
128,160,84015,1,0
192,160,84335,1,0
256,160,84655,1,0
416,64,85615,2,0,B|416:320,1,240
288,160,87536,5,0
352,160,87856,1,0
416,160,88176,1,0
480,160,88496,1,0
384,320,89456,2,0,B|128:320,1,240
256,192,148023,12,0,153784
256,192,155704,12,0,158264
256,192,159544,12,0,162425
128,64,170585,6,0,B|384:64,2,240
64,256,173466,1,0
128,288,173786,1,0
192,320,174106,1,0
256,320,174426,6,0,B|512:320,2,240
160,160,177306,1,0
224,128,177626,1,0
288,96,177946,1,0
352,64,178266,6,0,B|352:320,2,240
448,224,181147,1,0
384,256,181467,1,0
320,288,181787,1,0
256,320,182107,6,0,B|0:320,2,240
256,128,184987,1,0
256,192,185947,12,0,189627
