osu file format v5

[General]
AudioFilename: 03 Untitled track 3.mp3
AudioLeadIn: 2996
PreviewTime: -1
Countdown: 1
SampleSet: Soft
StackLeniency: 0.7
Mode: 0
EditorBookmarks: 101224,102818

[Metadata]
Title:South Gustaberg
Artist:The Star Onions
Creator:fallenblu
Version:Easy

[Difficulty]
HPDrainRate:5
CircleSize:5
OverallDifficulty:5
SliderMultiplier:1.4
SliderTickRate:1

[Events]
//Background and Video events
0,0,"star_onions.jpg"
//Break Periods
2,58646,59372
//Storyboard Layer 0 (Background)
//Storyboard Layer 1 (Failing)
//Storyboard Layer 2 (Passing)
//Storyboard Layer 3 (Foreground)
//Storyboard Sound Samples
//Background Colour Transformations
3,100,0,0,0

[TimingPoints]
2650,531.396687627314,4,2,0,100

[HitObjects]
64,64,9558,1,0
112,112,10089,1,0
168,144,10620,1,0
456,40,11683,1,0
392,96,12215,1,0
312,176,12746,1,0
56,344,13809,1,0
120,312,14340,1,0
200,248,14872,1,0
480,328,15934,1,0
416,288,16466,1,0
328,240,16997,1,0
264,192,17529,1,0
256,112,18591,1,0
144,184,19654,5,0
424,200,20717,1,0
344,232,21780,1,0
280,272,22311,1,0
184,280,22843,1,0
144,216,23374,1,0
136,144,23905,1,0
248,72,24968,1,0
400,112,26031,1,0
400,184,27094,1,0
360,280,28157,1,0
256,296,29219,1,0
352,168,30282,5,0
296,96,31345,1,0
224,88,31876,1,0
136,104,32408,1,0
296,304,34002,2,0,B|480:56|472:56,3,280
360,80,37722,5,0
328,136,38253,1,0
272,160,38784,1,0
200,184,39316,1,0
128,128,40379,1,0
112,72,40910,1,0
64,40,41441,1,0
64,72,43036,2,0,B|296:360|336:152,2,350
48,168,46224,1,0
48,232,46755,1,0
96,296,47287,1,0
216,296,48350,1,0
240,240,48881,1,0
240,184,49412,1,0
64,88,51007,6,0,B|520:96,1,420
472,184,53132,6,0,B|8:176,1,420
56,296,55258,6,0,B|496:304,1,420
472,224,57383,5,0
472,152,57915,1,0
480,80,58446,1,0
392,48,60572,5,0
392,144,61103,1,0
376,256,61635,1,0
352,352,62166,2,0,B|208:216,1,140
296,176,63229,1,0
296,80,64292,5,0
312,176,64823,6,0,B|64:176,2,210
224,80,66948,1,0
168,176,67480,1,0
256,176,68011,1,0
352,184,68543,1,0
368,72,69074,2,0,B|192:72,2,140
296,144,70668,1,0
224,184,71200,1,0
184,264,71731,1,0
256,320,72262,1,0
352,312,72794,1,0
448,312,73325,2,0,B|480:152|384:32|352:32,1,280
360,32,74919,6,0,B|248:200|392:360|384:360,1,350
288,344,77045,1,0
248,280,77576,1,0
208,208,78108,1,0
136,216,78639,5,0
96,280,79171,5,0
72,168,79968,1,0
128,144,80233,1,0
208,136,80765,1,0
304,112,81296,1,0
256,184,81562,5,0
296,224,81828,1,0
320,320,82359,1,0
216,312,82890,5,0
144,240,83422,1,0
232,176,83953,1,0
424,64,84485,2,0,B|56:64,1,350
56,88,86079,1,0
56,176,86610,1,0
56,280,87142,5,0
128,312,87673,1,0
152,216,88204,1,0
256,224,88736,1,0
256,288,89001,2,0,B|440:288|384:88|384:80,1,280
320,128,90330,1,0
240,64,90861,5,0
160,112,91393,1,0
136,224,91924,1,0
168,312,92456,1,0
264,264,92987,1,0
352,216,93518,1,0
280,160,94050,1,0
208,80,94581,1,0
144,56,95113,6,0,B|16:176|184:352,1,280
216,304,96707,5,0
272,248,97770,5,0
352,296,98301,1,0
392,224,98832,1,0
368,144,99364,1,0
304,88,99895,1,0
200,56,100426,1,0
112,104,100958,1,0
96,232,101489,1,0
208,320,102021,1,0
