osu file format v12

[General]
AudioFilename: 08. Pace of Light.mp3
AudioLeadIn: 0
PreviewTime: 36424
Countdown: 0
SampleSet: Soft
StackLeniency: 0.7
Mode: 0
LetterboxInBreaks: 1

[Editor]
Bookmarks: 15116,139696,169009
DistanceSpacing: 1.3
BeatDivisor: 4
GridSize: 4

[Metadata]
Title:Pace of Light
TitleUnicode:Pace of Light
Artist:The Shanghai Restoration Project
ArtistUnicode:The Shanghai Restoration Project
Creator:dkun
Version:Lightspeed
Source:
Tags:MMzz Ayu CDFA MittenMasterzz Story of a City
BeatmapID:209155
BeatmapSetID:49525

[Difficulty]
HPDrainRate:7
CircleSize:4
OverallDifficulty:7
ApproachRate:8
SliderMultiplier:1.9
SliderTickRate:1

[Events]
//Background and Video events
0,0,"restoration.jpg",0,0
//Break Periods
2,51972,54681
//Storyboard Layer 0 (Background)
//Storyboard Layer 1 (Fail)
//Storyboard Layer 2 (Pass)
//Storyboard Layer 3 (Foreground)
//Storyboard Sound Samples
//Background Colour Transformations
3,100,163,162,255

[TimingPoints]
475,458.015267175573,4,2,1,60,1,0
29787,-133.333333333333,4,2,1,60,0,0
37116,-100,4,2,1,60,0,1
51772,-100,4,2,1,60,0,0
70093,-133.333333333333,4,2,1,60,0,0
77421,-100,4,2,1,60,0,1
92078,-100,4,2,1,60,0,0
92536,-133.333333333333,4,2,1,60,0,0
123223,-100,4,2,1,60,0,0
125055,-100,4,2,1,60,0,1
139711,-100,4,2,1,60,0,0

[Colours]
Combo1 : 0,128,0
Combo2 : 255,128,128
Combo3 : 0,128,255

[HitObjects]
304,328,15131,2,0,P|356:344|392:312,1,95,2|0,0:0|0:0,0:0:0:0:
208,280,15589,2,0,P|156:264|120:296,1,95,8|0,0:0|0:0,0:0:0:0:
16,232,16047,2,0,L|8:28,1,190,0|8,0:0|0:0,0:0:0:0:
132,92,16734,1,0,0:0:0:0:
256,36,16963,2,0,L|356:32,1,95
256,136,17421,6,0,L|156:140,1,95,8|0,0:0|0:0,0:0:0:0:
72,252,17879,1,2,0:0:0:0:
152,332,18108,1,2,0:0:0:0:
256,284,18337,1,8,0:0:0:0:
360,332,18566,1,0,0:0:0:0:
440,252,18795,6,0,P|372:184|396:96,1,190,2|8,0:0|0:0,0:0:0:0:
256,148,19482,1,0,0:0:0:0:
120,100,19711,2,0,P|140:184|72:252,1,190,2|8,0:0|0:0,0:0:0:0:
160,340,20398,1,0,0:0:0:0:
312,252,20627,1,2,0:0:0:0:
200,252,20856,1,2,0:0:0:0:
348,340,21085,1,8,0:0:0:0:
256,172,21314,1,2,0:0:0:0:
189,79,21543,2,0,P|255:23|325:87,1,190,0|8,0:0|0:0,0:0:0:0:
356,188,22230,1,0,0:0:0:0:
256,336,22459,6,0,L|160:340,1,95,2|0,0:0|0:0,0:0:0:0:
256,244,22917,2,0,L|350:240,1,95,8|0,0:0|0:0,0:0:0:0:
172,176,23375,2,0,P|108:120|160:20,1,190,2|8,0:0|0:0,0:0:0:0:
256,136,24062,1,0,0:0:0:0:
340,176,24291,2,0,P|404:120|352:20,1,190,2|8,0:0|0:0,0:0:0:0:
256,136,24978,1,0,0:0:0:0:
216,280,25207,2,0,P|176:264|120:272,1,95,2|2,0:0|0:0,0:0:0:0:
296,352,25665,2,0,P|336:368|392:360,1,95,8|2,0:0|0:0,0:0:0:0:
372,196,26123,6,0,P|436:120|420:20,1,190,2|8,0:0|0:0,0:0:0:0:
304,88,26810,2,0,L|204:88,1,95
76,180,27268,2,0,L|171:180,1,95,0|8,0:0|0:0,0:0:0:0:
284,264,27726,1,0,0:0:0:0:
424,232,27955,2,0,P|456:196|448:148,2,95,2|0|8,0:0|0:0|0:0,0:0:0:0:
284,264,28642,1,2,0:0:0:0:
144,296,28871,2,0,P|60:336|36:236,1,190,2|8,0:0|0:0,0:0:0:0:
32,152,29558,1,0,0:0:0:0:
144,68,29787,6,0,L|288:56,1,142.500005435944
396,48,30475,1,0,0:0:0:0:
344,144,30704,2,0,P|400:180|404:268,1,142.500005435944,2|0,0:0|0:0,0:0:0:0:
384,356,31391,1,0,0:0:0:0:
256,328,31620,2,0,L|256:248,2,71.2500027179719
128,356,32307,1,0,0:0:0:0:
100,250,32536,2,0,P|112:180|168:144,1,142.500005435944,0|8,0:0|0:0,0:0:0:0:
272,128,33223,1,0,0:0:0:0:
360,68,33452,6,0,P|424:32|504:64,1,142.500005435944,2|0,0:0|0:0,0:0:0:0:
436,152,34139,1,0,0:0:0:0:
436,152,34368,2,0,L|452:296,1,142.500005435944
319,315,35055,1,0,0:0:0:0:
319,315,35284,2,0,P|253:244|195:327,1,213.750008153916
88,340,36200,1,0,0:0:0:0:
20,244,36429,1,0,0:0:0:0:
100,152,36658,1,8,0:0:0:0:
40,40,36887,1,0,0:0:0:0:
181,56,37116,6,0,P|254:105|337:40,1,190,2|8,0:0|0:0,0:0:0:0:
450,116,37803,1,0,0:0:0:0:
364,192,38032,1,0,0:0:0:0:
450,268,38261,1,0,0:0:0:0:
364,344,38490,2,0,L|268:356,1,95,8|0,0:0|0:0,0:0:0:0:
128,288,38948,6,0,L|222:276,2,95,2|2|8,0:0|0:0|0:0,0:0:0:0:
24,212,39635,1,2,0:0:0:0:
128,136,39864,2,0,P|200:108|148:32,1,190,2|8,0:0|0:0,0:0:0:0:
256,196,40551,1,0,0:0:0:0:
358,32,40780,2,0,P|312:108|384:136,1,190,2|8,0:0|0:0,0:0:0:0:
496,192,41467,5,0,0:0:0:0:
424,292,41696,2,0,P|332:268|336:332,1,190,0|8,0:0|0:0,0:0:0:0:
256,228,42383,2,0,L|256:124,2,95,0|2|2,0:0|0:0|0:0,0:0:0:0:
177,330,43070,2,0,P|180:268|88:292,1,190,10|2,0:0|0:0,0:0:0:0:
56,172,43757,1,2,0:0:0:0:
56,172,43986,6,0,L|48:72,1,95,10|0,0:0|0:0,0:0:0:0:
148,152,44444,2,0,L|140:52,1,95,0|0,0:0|0:0,0:0:0:0:
236,136,44902,2,0,L|228:36,2,95,8|0|0,0:0|0:0|0:0,0:0:0:0:
356,96,45589,1,0,0:0:0:0:
424,200,45818,2,0,L|448:300,1,95,8|0,0:0|0:0,0:0:0:0:
331,328,46276,6,0,P|258:279|175:344,1,190,2|8,0:0|0:0,0:0:0:0:
68,272,46963,1,0,0:0:0:0:
144,168,47192,2,0,L|96:80,1,95,2|0,0:0|0:0,0:0:0:0:
256,120,47650,2,0,L|256:220,1,95,10|0,0:0|0:0,0:0:0:0:
368,168,48108,2,0,L|413:84,2,95,2|2|8,0:0|0:0|0:0,0:0:0:0:
256,240,48795,1,0,0:0:0:0:
136,304,49024,6,0,P|108:232|12:264,2,190,2|8|2,0:0|0:0|0:0,0:0:0:0:
256,240,50169,1,2,0:0:0:0:
376,304,50398,2,0,P|468:328|496:256,1,190,8|2,0:0|0:0,0:0:0:0:
440,144,51085,1,2,0:0:0:0:
352,60,51314,2,0,L|160:40,1,190,8|2,0:0|0:0,0:0:0:0:
212,336,55436,6,0,P|252:352|310:324,1,95,2|0,0:0|0:0,0:0:0:0:
456,280,55894,2,0,P|416:264|358:292,1,95,10|0,0:0|0:0,0:0:0:0:
256,232,56352,2,0,L|256:40,1,190,2|8,0:0|0:0,0:0:0:0:
148,168,57039,1,0,0:0:0:0:
176,284,57268,5,2,0:0:0:0:
364,168,57497,1,2,0:0:0:0:
148,168,57726,1,8,0:0:0:0:
336,284,57955,1,2,0:0:0:0:
256,96,58184,2,0,L|256:-12,2,95,2|0|8,0:0|0:0|0:0,0:0:0:0:
256,232,58871,1,0,0:0:0:0:
328,344,59100,6,0,P|376:324|420:332,1,95,2|0,0:0|0:0,0:0:0:0:
184,344,59558,2,0,P|136:364|92:356,1,95,8|0,0:0|0:0,0:0:0:0:
56,240,60016,2,0,P|104:160|64:76,1,190,2|8,0:0|0:0,0:0:0:0:
188,48,60704,1,2,0:0:0:0:
188,48,60933,2,0,L|396:40,1,190,2|8,0:0|0:0,0:0:0:0:
392,164,61620,1,0,0:0:0:0:
392,164,61849,2,0,P|436:180|488:148,1,95
352,248,62307,2,0,P|308:232|256:264,1,95,8|0,0:0|0:0,0:0:0:0:
168,328,62765,5,2,0:0:0:0:
56,240,62994,1,0,0:0:0:0:
120,112,63223,2,0,P|164:120|212:100,1,95,10|0,0:0|0:0,0:0:0:0:
392,64,63681,2,0,P|346:45|302:53,1,95,2|0,0:0|0:0,0:0:0:0:
176,192,64139,2,0,L|176:288,1,95,10|0,0:0|0:0,0:0:0:0:
336,192,64597,2,0,L|336:97,1,95,2|2,0:0|0:0,0:0:0:0:
180,40,65055,2,0,P|80:72|4:16,2,190,8|0|8,0:0|0:0|0:0,0:0:0:0:
292,72,66200,1,0,0:0:0:0:
404,40,66429,6,0,P|472:108|452:196,1,190,2|8,0:0|0:0,0:0:0:0:
360,312,67116,1,0,0:0:0:0:
172,344,67345,2,0,L|40:352,1,95,2|0,0:0|0:0,0:0:0:0:
248,264,67803,2,0,L|342:258,1,95,8|0,0:0|0:0,0:0:0:0:
476,148,68261,1,0,0:0:0:0:
36,236,68719,1,0,0:0:0:0:
444,52,69177,1,0,0:0:0:0:
424,328,69635,5,8,0:0:0:0:
424,328,69864,1,2,0:0:0:0:
424,328,70093,2,0,P|472:280|460:204,1,142.500005435944,2|8,0:0|0:0,0:0:0:0:
408,112,70780,1,0,0:0:0:0:
408,112,71009,2,0,P|360:160|372:236,2,142.500005435944,2|8|0,0:0|0:0|0:0,0:0:0:0:
500,76,72154,1,0,0:0:0:0:
408,112,72383,1,8,0:0:0:0:
332,48,72612,1,0,0:0:0:0:
232,68,72841,2,0,L|148:60,1,71.2500027179719
256,152,73299,2,0,L|326:158,1,71.2500027179719,8|2,0:0|0:0,0:0:0:0:
216,240,73757,6,0,P|160:276|84:252,2,142.500005435944,2|8|0,0:0|0:0|0:0,0:0:0:0:
312,152,74902,1,0,0:0:0:0:
440,192,75131,2,0,P|424:256|468:316,2,142.500005435944,8|0|8,0:0|0:0|0:0,0:0:0:0:
468,64,76276,1,0,0:0:0:0:
336,64,76505,2,0,L|264:60,1,71.2500027179719
176,140,76963,2,0,L|248:144,1,71.2500027179719,8|0,0:0|0:0,0:0:0:0:
184,304,77421,6,0,P|256:356|328:304,1,190,2|8,0:0|0:0,0:0:0:0:
448,244,78108,1,0,0:0:0:0:
320,192,78337,1,0,0:0:0:0:
448,144,78566,1,0,0:0:0:0:
352,48,78795,2,0,L|256:36,1,95,8|0,0:0|0:0,0:0:0:0:
164,116,79253,6,0,L|258:128,2,95,2|2|8,0:0|0:0|0:0,0:0:0:0:
32,192,79940,1,0,0:0:0:0:
120,328,80169,2,0,P|184:256|208:316,1,190,2|8,0:0|0:0,0:0:0:0:
256,148,80856,1,0,0:0:0:0:
301,304,81085,2,0,P|328:256|392:328,1,190,2|8,0:0|0:0,0:0:0:0:
484,232,81772,5,0,0:0:0:0:
484,232,82001,2,0,P|496:132|424:96,1,190,2|8,0:0|0:0,0:0:0:0:
256,128,82688,2,0,L|256:33,2,95,0|2|2,0:0|0:0|0:0,0:0:0:0:
84,95,83375,2,0,P|16:132|28:232,1,190,10|2,0:0|0:0,0:0:0:0:
160,324,84062,1,2,0:0:0:0:
160,324,84291,6,0,L|167:229,1,95,10|0,0:0|0:0,0:0:0:0:
256,332,84749,2,0,L|263:237,1,95,0|0,0:0|0:0,0:0:0:0:
352,340,85207,2,0,L|359:245,2,95,8|0|0,0:0|0:0|0:0,0:0:0:0:
480,312,85894,1,0,0:0:0:0:
448,176,86123,2,0,L|472:76,1,95,8|0,0:0|0:0,0:0:0:0:
331,56,86581,6,0,P|258:105|175:40,1,190,2|8,0:0|0:0,0:0:0:0:
68,112,87268,1,0,0:0:0:0:
144,216,87497,2,0,L|96:304,1,95,2|0,0:0|0:0,0:0:0:0:
256,360,87955,2,0,L|256:260,1,95,10|0,0:0|0:0,0:0:0:0:
368,216,88413,2,0,L|413:300,1,95,2|2,0:0|0:0,0:0:0:0:
216,52,88871,2,0,P|255:74|296:48,1,95,8|0,0:0|0:0,0:0:0:0:
192,148,89329,1,2,0:0:0:0:
312,292,89558,1,2,0:0:0:0:
200,292,89787,1,8,0:0:0:0:
320,148,90016,1,0,0:0:0:0:
140,72,90245,6,0,P|64:128|80:212,1,190,2|8,0:0|0:0,0:0:0:0:
256,312,90933,2,0,L|256:216,2,95,0|2|0,0:0|0:0|0:0,0:0:0:0:
432,212,91620,2,0,P|448:128|372:72,1,190,8|2,0:0|0:0,0:0:0:0:
312,312,92536,6,0,P|232:344|196:296,2,142.500005435944
364,232,93681,1,0,0:0:0:0:
316,152,93910,2,0,P|372:60|432:128,2,213.750008153916,0|0|8,0:0|0:0|0:0,0:0:0:0:
364,232,95513,1,0,0:0:0:0:
312,312,95742,1,0,0:0:0:0:
124,328,96200,6,0,P|92:340|52:328,1,71.2500027179719
144,252,96658,2,0,P|176:240|216:252,1,71.2500027179719
256,344,97116,2,0,L|408:336,1,142.500005435944
492,332,97803,1,0,0:0:0:0:
444,252,98032,1,0,0:0:0:0:
484,168,98261,1,0,0:0:0:0:
444,84,98490,2,0,L|368:80,1,71.2500027179719
280,76,98948,1,8,0:0:0:0:
188,68,99177,1,0,0:0:0:0:
96,60,99406,1,2,0:0:0:0:
193,347,99864,6,0,P|277:319|329:367,1,142.500005435944
388,284,100551,1,0,0:0:0:0:
452,216,100780,2,0,P|504:168|480:80,2,142.500005435944
388,284,101925,1,0,0:0:0:0:
308,236,102154,1,0,0:0:0:0:
256,320,102383,1,0,0:0:0:0:
204,236,102612,1,8,0:0:0:0:
124,284,102841,1,0,0:0:0:0:
60,216,103070,6,0,P|8:164|56:40,2,213.750008153916
124,284,104673,1,0,0:0:0:0:
200,340,104902,2,0,P|264:368|352:344,1,142.500005435944
416,316,105589,1,0,0:0:0:0:
480,240,105818,1,0,0:0:0:0:
480,144,106047,5,0,0:0:0:0:
416,68,106276,1,8,0:0:0:0:
324,108,106505,1,0,0:0:0:0:
252,40,106734,2,0,P|180:60|120:20,1,142.500005435944,2|0,0:0|0:0,0:0:0:0:
24,128,107421,2,0,P|96:108|156:148,1,142.500005435944,2|0,0:0|0:0,0:0:0:0:
212,220,108108,1,0,0:0:0:0:
256,312,108337,1,0,0:0:0:0:
356,336,108566,1,0,0:0:0:0:
256,40,109024,1,0,0:0:0:0:
156,336,109482,1,0,0:0:0:0:
152,104,109940,5,8,0:0:0:0:
256,148,110169,1,0,0:0:0:0:
360,104,110398,1,0,0:0:0:0:
256,336,110856,5,8,0:0:0:0:
152,104,111314,2,0,P|88:136|16:108,2,142.500005435944,0|2|0,0:0|0:0|0:0,0:0:0:0:
256,336,112688,5,0,0:0:0:0:
360,104,113146,2,0,P|424:136|496:108,2,142.500005435944,0|2|0,0:0|0:0|0:0,0:0:0:0:
212,344,114520,6,0,L|140:348,1,71.2500027179719
300,300,114978,2,0,L|372:296,1,71.2500027179719,2|0,0:0|0:0,0:0:0:0:
456,184,115436,2,0,P|464:120|540:104,2,142.500005435944,0|2|0,0:0|0:0|0:0,0:0:0:0:
480,288,116581,1,0,0:0:0:0:
348,320,116810,2,0,L|200:328,1,142.500005435944,0|2,0:0|0:0,0:0:0:0:
116,332,117497,1,0,0:0:0:0:
16,336,117726,1,0,0:0:0:0:
56,60,118184,5,0,0:0:0:0:
156,52,118413,1,0,0:0:0:0:
256,44,118642,2,0,P|304:80|388:56,1,142.500005435944,0|2,0:0|0:0,0:0:0:0:
236,160,119329,1,0,0:0:0:0:
236,160,119558,2,0,P|188:124|104:148,1,142.500005435944
36,208,120245,1,0,0:0:0:0:
112,272,120474,2,0,P|72:336|16:284,2,142.500005435944,0|2|0,0:0|0:0|0:0,0:0:0:0:
200,344,121620,1,0,0:0:0:0:
200,344,121849,6,0,L|344:336,1,142.500005435944
432,240,122536,1,0,0:0:0:0:
432,240,122765,2,0,L|289:247,1,142.500005435944,2|0,0:0|0:0,0:0:0:0:
148,256,123452,1,0,0:0:0:0:
24,184,123681,1,0,0:0:0:0:
60,36,123910,1,0,0:0:0:0:
184,108,124139,1,0,0:0:0:0:
328,80,124368,1,0,0:0:0:0:
328,80,124597,2,0,P|368:96|426:68,1,95,8|0,0:0|0:0,0:0:0:0:
328,80,125055,6,0,P|256:28|184:80,1,190,2|8,0:0|0:0,0:0:0:0:
64,140,125742,1,0,0:0:0:0:
192,192,125971,1,0,0:0:0:0:
64,240,126200,1,0,0:0:0:0:
160,336,126429,2,0,L|256:348,1,95,8|0,0:0|0:0,0:0:0:0:
348,268,126887,6,0,P|304:280|256:256,2,95,2|2|8,0:0|0:0|0:0,0:0:0:0:
480,192,127574,1,2,0:0:0:0:
388,64,127803,2,0,P|312:24|212:44,1,190,2|8,0:0|0:0,0:0:0:0:
100,108,128490,1,0,0:0:0:0:
140,232,128719,6,0,P|104:328|56:264,1,190,2|8,0:0|0:0,0:0:0:0:
256,248,129406,1,0,0:0:0:0:
450,300,129635,2,0,P|408:328|372:232,1,190,2|8,0:0|0:0,0:0:0:0:
256,120,130322,2,0,L|256:25,2,95,0|2|2,0:0|0:0|0:0,0:0:0:0:
416,184,131009,2,0,P|428:284|360:321,1,190,10|2,0:0|0:0,0:0:0:0:
224,332,131696,1,2,0:0:0:0:
224,332,131925,6,0,L|112:340,1,95,10|0,0:0|0:0,0:0:0:0:
216,248,132383,2,0,L|104:256,1,95
208,164,132841,2,0,L|96:172,2,95,8|0|0,0:0|0:0|0:0,0:0:0:0:
332,156,133528,1,0,0:0:0:0:
412,72,133757,2,0,L|506:65,1,95,8|0,0:0|0:0,0:0:0:0:
330,71,134215,6,0,P|253:23|180:72,1,190,2|8,0:0|0:0,0:0:0:0:
88,184,134902,1,0,0:0:0:0:
164,316,135131,2,0,L|264:328,1,95,2|0,0:0|0:0,0:0:0:0:
424,280,135589,2,0,L|329:268,1,95,10|0,0:0|0:0,0:0:0:0:
184,184,136047,2,0,L|278:195,1,95,2|2,0:0|0:0,0:0:0:0:
420,140,136505,2,0,L|325:128,1,95,8|0,0:0|0:0,0:0:0:0:
176,104,136963,1,2,0:0:0:0:
32,188,137192,1,2,0:0:0:0:
108,332,137421,1,2,0:0:0:0:
252,248,137650,1,2,0:0:0:0:
392,336,137879,6,0,P|468:280|452:196,1,190,2|8,0:0|0:0,0:0:0:0:
256,288,138566,1,0,0:0:0:0:
120,336,138795,2,0,P|44:280|60:196,1,190,2|8,0:0|0:0,0:0:0:0:
140,92,139482,1,0,0:0:0:0:
256,192,139711,12,0,141085,0:0:0:0:
