osu file format v9

[General]
AudioFilename: Cowboy Bebop - Tank! (Opening Theme).mp3
AudioLeadIn: 3000
PreviewTime: -1
Countdown: 0
SampleSet: Soft
StackLeniency: 0.7
Mode: 0
LetterboxInBreaks: 1

[Editor]
Bookmarks: 4846,22876,24821,27851,30619,31629,35033,38437,42028,48873,52315,55868,59609,63013,66230,70382,74160,76404,78462,80183,205756
DistanceSpacing: 0.8
BeatDivisor: 8
GridSize: 32

[Metadata]
Title:Tank!
Artist:The SeatBelts
Creator:zerothefallen
Version:Hard
Source:Cowboy Bebop
Tags:

[Difficulty]
HPDrainRate:3
CircleSize:4
OverallDifficulty:4
ApproachRate:3
SliderMultiplier:1.4
SliderTickRate:1

[Events]
//Background and Video events
0,0,"cowboy_bebop.jpg"
//Break Periods
2,10074,21772
2,81640,197882
//Storyboard Layer 0 (Background)
//Storyboard Layer 1 (Fail)
//Storyboard Layer 2 (Pass)
//Storyboard Layer 3 (Foreground)
//Storyboard Sound Samples
//Background Colour Transformations
3,100,163,162,255

[TimingPoints]
565,217.391304347826,4,2,0,100,1,0

[Colours]
Combo1 : 255,150,0
Combo2 : 244,0,6
Combo3 : 5,5,240
Combo4 : 53,191,64

[HitObjects]
448,64,631,1,0
384,96,931,1,0
448,128,1280,1,0
384,160,1629,1,0
448,192,1928,2,0,B|384:320,1,140
64,64,4023,5,0
160,64,4372,1,0
256,64,4659,1,0
352,64,4921,1,0
352,160,5220,5,0
256,160,5444,1,0
160,160,5755,1,0
64,160,6080,1,0
64,256,6417,5,0
160,256,6641,1,0
256,256,6978,1,0
352,256,7195,1,0
448,64,7539,6,0,B|448:192,1,122.5
352,128,8138,1,0
256,128,8362,1,0
160,128,8661,1,0
64,288,8961,5,0
64,288,9222,2,0,B|64:64,2,210
64,64,23212,5,0
128,128,23624,1,0
192,192,24073,1,0
64,224,24335,1,0
64,224,24522,1,0
160,64,24933,5,0
160,64,25045,1,0
160,64,25293,1,0
160,64,25374,1,0
160,64,25592,1,0
160,64,25700,1,0
160,64,26018,6,0,B|32:96|0:192|32:288|160:288,1,367.5
192,32,28337,5,0
192,32,28449,1,0
192,32,28674,1,0
192,32,28786,1,0
192,32,29048,1,0
192,32,29160,1,0
192,32,29422,2,0,B|32:64|0:160|32:256|160:288|192:288,1,420
224,64,31928,5,0
224,64,32005,1,0
224,64,32249,1,0
224,64,32358,1,0
224,64,32521,1,0
224,64,32630,1,0
224,64,32938,6,0,B|352:96|416:224|320:352|224:352,1,420
96,64,35444,6,0,B|160:64,1,52.5
160,128,35744,6,0,B|96:128,1,52.5
96,192,36043,6,0,B|160:192,1,52.5
224,64,36454,6,0,B|448:192|224:320,1,350
128,64,38811,6,0,B|128:224,1,157.5
224,224,39522,6,0,B|384:224,1,157.5
384,160,40195,5,0
352,96,40681,1,0
64,256,41280,5,0
64,320,41878,1,0
384,64,42365,5,0
384,64,42626,2,0,B|384:256,2,192.5
32,32,44272,5,8
96,96,44497,1,8
160,160,44721,1,8
224,224,44908,1,8
288,288,45133,1,8
352,96,45320,5,4
352,96,45394,1,4
64,64,45881,6,0,B|128:64,1,52.5
64,128,46180,6,0,B|128:128,1,52.5
64,192,46479,6,0,B|128:192,1,52.5
256,64,46816,5,0
256,64,46966,2,0,B|256:320,1,245
64,64,49287,6,0,B|288:64,2,210
288,128,50332,5,0
288,128,50744,2,0,B|384:160|416:224|384:288|288:320,1,280
479,104,52726,6,0,B|479:200,1,87.5
480,256,53138,6,0,B|384:256,1,87.5
384,192,53437,6,0,B|384:96,1,87.5
256,32,53923,5,0
256,32,54185,2,0,B|256:288,2,245
64,160,56205,6,0,B|192:160,1,122.5
256,160,56616,6,0,B|256:64,1,87.5
320,160,56953,6,0,B|416:160,1,87.5
459,206,57402,6,0,B|235:366|11:206,1,472.5
128,32,59759,6,0,B|320:32,1,192.5
448,96,60394,6,0,B|448:256,1,157.5
320,352,61030,6,0,B|160:352,1,157.5
32,288,61554,6,0,B|32:128,1,157.5
160,32,62190,6,0,B|320:32,1,157.5
448,96,62901,6,0,B|448:192,1,87.5
448,256,63237,6,0,B|448:352,1,87.5
384,352,63574,6,0,B|384:256,1,87.5
320,256,63911,6,0,B|320:352,1,87.5
256,352,64210,6,0,B|64:192|256:0,1,402.5
480,192,65407,5,0
416,192,65818,2,0,B|416:64,1,122.5
352,64,66567,6,0,B|96:96|32:192|96:320|384:320,1,612.5
64,64,68212,5,0
192,64,68437,2,0,B|416:64,1,210
406,134,69148,2,0,B|406:284,1,140
406,350,69671,1,0
288,352,70232,6,0,B|64:352|64:192|64:32|301:29,1,577.5
423,51,72028,5,0
423,51,72252,1,0
384,320,72701,2,0,B|143:199,2,262.5
448,64,74534,5,0
448,128,74871,1,0
448,192,75133,1,0
448,256,75394,1,0
384,256,75694,1,0
384,192,76030,1,0
384,64,76330,1,0
288,64,76741,5,0
288,64,77190,2,0,B|160:64,1,122.5
64,128,77863,5,0
64,128,77976,2,0,B|64:288,1,157.5
160,320,78761,5,0
160,320,78911,2,0,B|384:320|448:192|384:64|147:96,1,542.5
64,64,80631,6,0,B|160:64,1,87.5
192,128,80968,6,0,B|96:128,1,87.5
64,192,81305,6,0,B|160:192,1,87.5
256,192,199322,12,4,206841
