osu file format v12

[General]
AudioFilename: mepeetree - 1.mp3
AudioLeadIn: 0
PreviewTime: 43836
Countdown: 0
SampleSet: Normal
StackLeniency: 0.7
Mode: 0
LetterboxInBreaks: 0

[Editor]
DistanceSpacing: 1.4
BeatDivisor: 4
GridSize: 4

[Metadata]
Title:Hall of Fame
TitleUnicode:Hall of Fame
Artist:The Script ft. will.i.am
ArtistUnicode:The Script ft. will.i.am
Creator:Aleks719
Version:Owlsane
Source:
Tags:kyshiro hip hop
BeatmapID:257882
BeatmapSetID:96147

[Difficulty]
HPDrainRate:7
CircleSize:4
OverallDifficulty:7
ApproachRate:8
SliderMultiplier:3.2
SliderTickRate:2

[Events]
//Background and Video events
0,0,"123.jpg",0,0
//Break Periods
//Storyboard Layer 0 (Background)
//Storyboard Layer 1 (Fail)
//Storyboard Layer 2 (Pass)
//Storyboard Layer 3 (Foreground)
//Storyboard Sound Samples
//Background Colour Transformations
3,100,128,128,192

[TimingPoints]
160,705.882352941176,4,1,0,50,1,0
21689,-100,4,1,0,60,0,0
45336,-100,4,1,0,65,0,1
67924,-100,4,2,0,75,0,0
72865,-100,4,1,0,60,0,0
90512,-100,4,1,0,65,0,1
111159,-100,4,1,0,55,0,1
113101,-100,4,1,0,55,0,0
124483,-166.666666666667,4,1,0,35,0,0
135689,-125,4,1,0,45,0,0
145571,-100,4,1,0,60,0,0
146983,-100,4,1,0,65,0,1
168865,-100,4,1,0,60,0,0

[Colours]
Combo1 : 0,187,187
Combo2 : 104,160,179
Combo3 : 18,124,255
Combo4 : 128,128,255

[HitObjects]
128,240,21512,5,8,0:3:0:0:
128,240,21865,1,8,0:3:0:0:
176,176,22042,1,2,0:2:0:0:
251,202,22218,1,8,0:3:0:0:
250,282,22395,1,2,0:2:0:0:
173,305,22571,1,8,0:3:0:0:
52,288,22748,6,0,P|84:216|60:136,1,160,4|0,0:0|0:0,0:0:0:0:
28,60,23277,2,0,L|108:76,1,80,8|8,0:3|0:0,0:0:0:0:
232,156,23630,2,0,L|153:140,1,80
296,100,23983,2,0,L|376:116,1,80
256,292,24512,1,0,0:0:0:0:
308,220,24689,1,8,0:3:0:0:
480,340,24865,5,8,0:0:0:0:
392,352,25042,1,0,0:0:0:0:
316,308,25218,1,0,0:0:0:0:
308,220,25395,1,0,0:0:0:0:
352,144,25571,2,0,B|384:132|384:132|436:156|472:128|472:128|500:104|496:124,2,160,8|0|8,0:3|0:0|0:0,0:0:0:0:
264,144,26454,1,0,0:0:0:0:
192,92,26630,2,0,P|112:88|52:136,1,160
136,352,27159,2,0,P|216:356|276:308,1,160,4|4,0:3|0:3,0:0:0:0:
376,184,27689,5,8,0:0:0:0:
448,132,27865,1,0,0:0:0:0:
448,132,27954,1,2,0:2:0:0:
448,132,28042,1,8,0:3:0:0:
384,328,28218,1,0,0:0:0:0:
384,328,28307,1,2,0:2:0:0:
384,328,28395,1,4,0:0:0:0:
152,296,28747,6,0,L|68:312,1,80,0|4,0:0|0:3,0:0:0:0:
284,160,29100,2,0,L|200:176,1,80,8|0,0:0|0:0,0:0:0:0:
4,248,29453,2,0,L|88:232,1,80
40,108,29806,2,0,L|200:76,1,160,2|2,0:2|0:2,0:0:0:0:
216,84,30336,5,4,0:3:0:0:
216,84,30512,1,8,0:0:0:0:
336,68,30689,1,0,0:0:0:0:
336,68,30777,1,2,0:2:0:0:
336,68,30865,1,0,0:0:0:0:
384,276,31041,1,0,0:0:0:0:
384,276,31130,1,2,0:2:0:0:
384,276,31218,1,0,0:0:0:0:
52,328,31571,5,0,0:0:0:0:
64,348,31748,2,0,P|148:328|216:360,1,160,8|0,0:3|0:0,0:0:0:0:
320,360,32277,1,2,0:2:0:0:
424,336,32453,1,0,0:0:0:0:
476,240,32630,1,2,0:2:0:0:
452,136,32806,1,8,0:3:0:0:
240,60,33159,1,8,0:3:0:0:
232,68,33336,5,8,0:0:0:0:
108,276,33512,1,0,0:0:0:0:
280,248,33689,1,2,0:3:0:0:
108,276,33865,1,0,0:0:0:0:
108,276,33954,1,2,0:2:0:0:
108,276,34042,6,0,P|84:200|104:124,1,160,4|0,0:0|0:0,0:0:0:0:
252,132,34571,2,0,L|176:88,1,80,8|8,0:3|0:0,0:0:0:0:
328,184,34924,2,0,L|416:160,1,80
252,224,35277,1,0,0:0:0:0:
252,224,35453,1,2,0:2:0:0:
252,224,35806,2,0,L|236:304,1,80,0|8,0:0|0:3,0:0:0:0:
52,348,36159,5,8,0:0:0:0:
324,292,36336,1,0,0:0:0:0:
216,376,36512,1,0,0:0:0:0:
160,164,36689,1,0,0:0:0:0:
252,224,36865,2,0,P|336:204|368:136,1,160,8|2,0:3|0:2,0:0:0:0:
360,52,37394,1,8,0:3:0:0:
480,104,37571,5,8,0:0:0:0:
360,52,37747,1,0,0:0:0:0:
264,72,37924,1,0,0:0:0:0:
168,48,38100,1,0,0:0:0:0:
168,48,38189,1,2,0:2:0:0:
168,48,38277,2,0,P|132:72|88:68,1,80,0|8,0:0|0:3,0:0:0:0:
76,60,38806,5,8,0:3:0:0:
56,188,38983,1,8,0:0:0:0:
156,184,39159,1,0,0:0:0:0:
56,188,39336,2,0,L|78:264,1,80
88,272,39600,1,2,0:2:0:0:
96,280,39689,1,8,0:3:0:0:
192,336,39865,1,0,0:0:0:0:
284,288,40041,1,0,0:0:0:0:
384,316,40218,1,8,0:3:0:0:
492,232,40394,5,8,0:0:0:0:
132,68,40747,1,0,0:0:0:0:
132,68,40924,1,2,0:2:0:0:
204,248,41277,1,2,0:2:0:0:
320,88,41630,6,0,L|404:92,1,80,8|8,0:3|0:0,0:0:0:0:
352,212,41983,2,0,L|420:168,1,80
228,68,42336,1,0,0:0:0:0:
224,76,42512,1,2,0:3:0:0:
220,84,42689,1,0,0:0:0:0:
176,272,42865,1,0,0:0:0:0:
276,248,43041,1,2,0:3:0:0:
272,240,43218,1,0,0:0:0:0:
268,232,43394,1,0,0:0:0:0:
68,208,43571,2,0,P|128:200|172:160,1,120,2|0,0:3|0:0,0:0:0:0:
192,128,43924,6,0,L|272:140,1,80,2|0,0:2|0:0,0:0:0:0:
408,200,44277,2,0,P|428:160|460:136,1,80
408,308,44630,2,0,P|388:348|356:372,1,80,2|0,0:2|0:0,0:0:0:0:
180,344,44983,2,0,L|264:356,1,80
168,324,45336,5,4,0:0:0:0:
240,140,45689,2,0,L|324:108,1,80,0|8,0:0|0:3,0:0:0:0:
420,72,46042,2,0,P|388:148|412:224,1,160,8|0,0:0|0:0,0:0:0:0:
512,260,46571,2,0,B|480:276|480:276|460:304|408:324|360:296,1,160,0|8,0:0|0:3,0:0:0:0:
184,216,47101,1,0,0:0:0:0:
408,220,47454,1,8,0:0:0:0:
296,248,47807,1,0,0:0:0:0:
464,72,47983,5,0,0:0:0:0:
464,72,48071,1,0,0:0:0:0:
464,72,48159,1,0,0:0:0:0:
284,104,48512,1,0,0:0:0:0:
500,168,48865,1,8,0:0:0:0:
424,332,49042,6,0,P|388:316|344:320,1,80,0|0,0:0|0:0,0:0:0:0:
236,348,49395,2,0,P|304:316|316:236,1,160,0|0,0:0|0:0,0:0:0:0:
248,148,49924,1,0,0:0:0:0:
136,144,50100,1,8,0:3:0:0:
192,44,50277,1,8,0:0:0:0:
300,20,50453,1,0,0:0:0:0:
308,28,50807,5,8,0:3:0:0:
308,28,50895,1,8,0:3:0:0:
308,28,50983,1,4,0:0:0:0:
496,140,51336,2,0,L|416:160,1,80,0|8,0:0|0:3,0:0:0:0:
488,228,51689,2,0,L|328:192,1,160,8|0,0:0|0:0,0:0:0:0:
216,172,52218,1,8,0:3:0:0:
200,184,52571,6,0,B|160:180|160:180|116:196,1,80
16,252,52924,1,8,0:3:0:0:
120,268,53101,2,0,P|152:196|144:116,1,160,8|0,0:0|0:0,0:0:0:0:
48,32,53630,1,8,0:3:0:0:
48,32,53718,1,8,0:3:0:0:
48,32,53806,1,8,0:3:0:0:
436,88,54159,1,0,0:0:0:0:
144,116,54512,1,8,0:0:0:0:
304,164,54689,5,0,0:0:0:0:
336,284,54865,1,0,0:0:0:0:
208,252,55042,2,0,P|140:280|56:268,1,160,0|8,0:0|0:3,0:0:0:0:
232,260,55571,1,0,0:0:0:0:
336,284,55747,1,8,0:3:0:0:
432,236,55924,1,8,0:0:0:0:
340,60,56277,5,8,0:3:0:0:
328,56,56365,1,8,0:3:0:0:
316,60,56453,1,8,0:3:0:0:
304,64,56541,1,8,0:3:0:0:
292,60,56630,2,0,B|224:48|196:88|132:72,1,160,4|0,0:0|0:0,0:0:0:0:
24,24,57159,2,0,P|36:64|32:104,1,80,4|8,0:3|0:0,0:0:0:0:
20,124,57689,5,2,0:3:0:0:
0,224,57865,2,0,B|40:300|140:292,1,160,0|0,0:0|0:0,0:0:0:0:
232,264,58394,1,0,0:0:0:0:
332,256,58571,1,8,0:3:0:0:
408,320,58747,2,0,P|432:284|464:260,1,80,8|4,0:0|0:3,0:0:0:0:
240,348,59277,1,8,0:3:0:0:
240,348,59365,1,8,0:3:0:0:
240,348,59453,1,8,0:3:0:0:
92,192,59806,2,0,L|4:212,2,80,0|8|8,0:0|0:3|0:0,0:0:0:0:
216,168,60336,5,0,0:0:0:0:
216,168,60512,1,0,0:0:0:0:
216,168,60689,2,0,P|316:192|388:180,1,160,0|8,0:0|0:3,0:0:0:0:
456,100,61218,2,0,L|376:84,1,80,0|8,0:0|0:3,0:0:0:0:
196,80,61571,2,0,L|276:96,1,80,8|0,0:0|0:0,0:0:0:0:
460,216,62100,5,8,0:3:0:0:
460,216,62189,1,8,0:3:0:0:
460,216,62277,2,0,L|428:300,1,80,4|0,0:0|0:0,0:0:0:0:
208,288,62630,2,0,L|288:276,1,80,0|8,0:0|0:3,0:0:0:0:
240,364,62983,2,0,L|80:384,1,160,8|0,0:0|0:0,0:0:0:0:
24,244,63512,2,0,L|56:160,1,80
96,56,63865,1,8,0:3:0:0:
116,48,63953,1,8,0:3:0:0:
136,44,64041,2,0,P|168:64|216:68,1,80,0|8,0:0|0:3,0:0:0:0:
312,60,64394,1,8,0:0:0:0:
312,60,64571,1,0,0:0:0:0:
208,308,64924,5,8,0:3:0:0:
208,308,65012,1,8,0:3:0:0:
208,308,65100,2,0,L|236:228,1,80,4|0,0:0|0:0,0:0:0:0:
284,344,65453,2,0,L|368:332,1,80,0|8,0:0|0:3,0:0:0:0:
472,356,65806,2,0,P|496:272|472:204,1,160,8|0,0:0|0:0,0:0:0:0:
400,136,66336,1,0,0:0:0:0:
304,160,66512,2,0,L|284:240,2,80,0|8|0,0:0|0:3|0:0,0:0:0:0:
336,60,67042,2,0,L|424:48,1,80,8|8,0:3|0:0,0:0:0:0:
324,36,67394,5,2,0:3:0:0:
240,64,67571,1,2,0:2:0:0:
144,64,67747,1,2,0:3:0:0:
48,104,67924,1,4,0:2:0:0:
48,104,68277,1,0,0:0:0:0:
48,104,68630,6,0,B|56:160|56:160|52:184,1,80,0|2,0:0|0:2,0:0:0:0:
8,272,68983,2,0,L|88:288,1,80,2|0,0:2|0:0,0:0:0:0:
188,304,69336,1,2,0:2:0:0:
188,304,69689,1,0,0:0:0:0:
432,216,70041,5,0,0:0:0:0:
336,240,70218,1,2,0:2:0:0:
160,196,70394,1,2,0:2:0:0:
256,172,70571,1,0,0:0:0:0:
56,228,70747,1,2,0:2:0:0:
56,228,71100,1,0,0:0:0:0:
144,104,71453,6,0,L|216:48,1,80,2|0,0:2|0:0,0:0:0:0:
276,116,71806,2,0,L|364:92,1,80,2|0,0:2|0:0,0:0:0:0:
368,204,72159,2,0,L|528:264,1,160,2|0,0:2|0:0,0:0:0:0:
312,360,72865,5,8,0:3:0:0:
160,344,73041,1,8,0:3:0:0:
312,360,73218,1,8,0:3:0:0:
160,344,73394,1,8,0:3:0:0:
160,344,73483,1,8,0:3:0:0:
160,344,73571,2,0,L|140:256,1,80,4|0,0:0|0:0,0:0:0:0:
248,224,73924,2,0,L|268:136,1,80,2|8,0:2|0:3,0:0:0:0:
296,16,74277,5,8,0:0:0:0:
212,64,74453,1,0,0:0:0:0:
116,48,74630,2,0,P|96:80|56:104,1,80
16,16,74983,2,0,P|12:100|28:180,1,160,2|0,0:2|0:0,0:0:0:0:
64,264,75512,1,8,0:3:0:0:
164,316,75689,6,0,L|248:324,1,80,8|0,0:0|0:0,0:0:0:0:
388,264,76041,2,0,L|304:256,1,80
452,184,76394,2,0,L|368:176,1,80,2|0,1:2|0:0,0:0:0:0:
272,168,76747,1,0,0:0:0:0:
172,176,76924,1,8,0:3:0:0:
300,84,77100,1,8,0:0:0:0:
400,76,77277,1,0,0:0:0:0:
224,36,77453,1,2,0:2:0:0:
124,44,77630,2,0,L|36:32,2,80,0|2|8,0:0|0:2|0:3,0:0:0:0:
124,44,78159,1,2,0:2:0:0:
348,284,78512,6,0,L|336:196,1,80,8|0,0:0|0:0,0:0:0:0:
104,228,78865,2,0,L|192:216,1,80
196,224,79130,1,8,0:3:0:0:
208,232,79218,1,8,0:3:0:0:
276,308,79394,1,0,0:0:0:0:
376,288,79571,2,0,L|480:304,1,80,0|8,0:0|0:3,0:0:0:0:
336,356,79924,5,8,0:0:0:0:
216,364,80100,1,0,0:0:0:0:
104,320,80277,1,0,0:0:0:0:
32,224,80453,1,0,0:0:0:0:
32,224,80630,2,0,L|112:184,1,80,2|0,0:2|0:0,0:0:0:0:
138,111,80983,2,0,L|60:96,1,80,2|8,0:2|0:3,0:0:0:0:
168,120,81336,5,8,0:0:0:0:
264,144,81512,1,0,0:0:0:0:
356,108,81689,1,0,0:0:0:0:
264,144,81865,1,0,0:0:0:0:
156,232,82041,2,0,L|72:248,1,80,8|0,0:3|0:0,0:0:0:0:
208,320,82394,2,0,P|268:336|292:336,1,80,0|8,0:0|0:3,0:0:0:0:
408,324,82747,5,8,0:0:0:0:
476,216,82924,1,0,0:0:0:0:
404,332,83100,1,0,0:0:0:0:
480,208,83277,1,0,0:0:0:0:
400,340,83453,1,2,0:2:0:0:
484,200,83630,2,0,P|500:160|492:120,1,80,8|2,0:3|0:2,0:0:0:0:
380,28,83983,2,0,L|460:40,1,80,8|8,0:3|0:0,0:0:0:0:
296,80,84336,5,0,0:0:0:0:
168,76,84512,1,0,0:0:0:0:
232,208,84689,1,8,0:3:0:0:
228,196,84777,1,8,0:3:0:0:
224,184,84865,1,8,0:3:0:0:
16,144,85218,1,0,0:0:0:0:
156,340,85571,6,0,P|188:368|228:376,1,80,8|0,0:0|0:0,0:0:0:0:
328,348,85924,1,0,0:0:0:0:
328,348,86100,1,0,0:0:0:0:
328,348,86277,2,0,B|352:292|352:292|412:280|432:232,1,160,2|0,0:2|0:0,0:0:0:0:
340,184,86806,6,0,L|264:212,1,80,8|8,0:3|0:0,0:0:0:0:
112,188,87159,2,0,P|148:168|188:160,1,80
200,328,87512,2,0,P|164:348|124:356,1,80,0|2,0:0|0:2,0:0:0:0:
24,360,87865,1,0,0:0:0:0:
24,360,88041,1,2,0:2:0:0:
376,104,88747,5,2,0:2:0:0:
376,104,88924,1,2,0:2:0:0:
260,80,89100,2,8,L|180:64,1,80,8|8,0:3|0:3,0:0:0:0:
248,264,89453,2,8,L|328:212,1,80,8|8,0:3|0:3,0:0:0:0:
476,268,89806,2,8,L|480:348,1,80,8|8,0:3|0:3,0:0:0:0:
488,100,90159,1,8,0:3:0:0:
184,160,90336,1,8,0:3:0:0:
184,160,90424,1,8,0:3:0:0:
184,160,90512,6,0,P|144:176|92:172,1,80,4|0,0:0|0:0,0:0:0:0:
48,68,90865,2,0,L|132:76,1,80,0|8,0:0|0:3,0:0:0:0:
228,56,91218,1,8,0:0:0:0:
328,40,91395,1,0,0:0:0:0:
416,92,91571,2,0,P|408:136|420:180,2,80
500,132,92101,1,0,0:0:0:0:
448,264,92277,2,0,P|360:272|296:236,1,160,0|8,0:0|0:0,0:0:0:0:
32,108,92983,5,0,0:0:0:0:
128,88,93159,1,0,0:0:0:0:
216,132,93336,1,8,0:3:0:0:
224,152,93689,1,0,0:0:0:0:
312,196,93866,1,8,0:3:0:0:
408,176,94042,1,8,0:0:0:0:
436,68,94218,6,0,L|524:48,1,80
360,48,94571,2,0,L|272:68,1,80
180,88,94924,1,8,0:3:0:0:
128,180,95101,1,0,0:0:0:0:
180,272,95277,2,0,P|168:320|144:352,1,80,8|8,0:3|0:0,0:0:0:0:
0,256,95630,2,0,P|24:172|76:124,1,160,0|8,0:0|0:3,0:0:0:0:
88,120,96071,1,8,0:3:0:0:
100,120,96159,1,4,0:0:0:0:
252,160,96512,6,0,B|292:156|292:156|332:140,1,80,0|8,0:0|0:3,0:0:0:0:
288,44,96865,2,0,P|328:104|420:128,1,160,8|0,0:0|0:0,0:0:0:0:
496,132,97394,1,2,0:2:0:0:
504,156,97747,6,0,B|516:192|512:236,1,80,2|0,0:2|0:0,0:0:0:0:
492,328,98100,1,8,0:3:0:0:
404,372,98277,2,0,P|376:304|388:220,1,160,8|0,0:0|0:0,0:0:0:0:
432,108,98806,1,8,0:3:0:0:
432,108,98894,1,8,0:3:0:0:
432,108,98982,1,8,0:3:0:0:
88,176,99335,1,0,0:0:0:0:
384,176,99688,1,8,0:0:0:0:
244,252,99865,5,0,0:0:0:0:
176,140,100041,1,0,0:0:0:0:
308,136,100218,2,0,P|392:160|464:136,1,160,0|8,0:0|0:3,0:0:0:0:
280,124,100747,1,0,0:0:0:0:
176,100,100923,1,8,0:3:0:0:
80,148,101100,1,8,0:0:0:0:
172,324,101453,5,8,0:3:0:0:
184,320,101541,1,8,0:3:0:0:
196,320,101629,1,8,0:3:0:0:
208,320,101717,1,8,0:3:0:0:
220,324,101806,2,0,B|292:344|380:312,1,160
492,328,102335,2,0,P|480:288|484:248,1,80,8|8,0:3|0:0,0:0:0:0:
492,232,102865,5,0,0:0:0:0:
508,128,103042,2,0,P|460:76|376:80,1,160
280,120,103570,1,0,0:0:0:0:
180,128,103747,1,8,0:3:0:0:
112,200,103924,2,0,L|32:184,1,80,8|0,0:0|0:0,0:0:0:0:
272,36,104453,1,8,0:3:0:0:
272,36,104541,1,8,0:3:0:0:
272,36,104629,1,8,0:3:0:0:
420,192,104983,2,0,L|504:168,2,80,2|0|8,0:2|0:0|0:0,0:0:0:0:
296,216,105512,5,2,0:2:0:0:
304,208,105688,1,0,0:0:0:0:
312,200,105865,2,0,P|212:176|140:188,1,160,2|8,0:2|0:3,0:0:0:0:
56,284,106394,2,0,L|136:300,1,80,0|8,0:0|0:3,0:0:0:0:
316,304,106748,2,0,L|236:288,1,80,8|2,0:0|0:2,0:0:0:0:
52,168,107276,5,8,0:3:0:0:
52,168,107365,1,8,0:3:0:0:
52,168,107453,2,0,L|84:84,1,80,4|0,0:0|0:0,0:0:0:0:
284,56,107806,2,0,L|196:68,1,80,0|8,0:0|0:3,0:0:0:0:
148,152,108159,1,8,0:0:0:0:
160,168,108512,6,0,L|244:192,1,80,0|0,0:0|0:0,0:0:0:0:
480,232,109042,2,0,L|396:256,1,80,0|0,0:0|0:0,0:0:0:0:
268,296,109395,2,0,L|348:304,2,80,8|8|0,0:3|0:0|0:0,0:0:0:0:
148,276,109924,5,0,0:0:0:0:
108,188,110101,1,2,0:2:0:0:
152,100,110277,1,8,0:3:0:0:
232,36,110454,2,0,P|296:48|328:44,1,80,2|0,0:2|0:0,0:0:0:0:
460,88,110807,2,0,L|380:128,1,80,8|8,0:3|0:0,0:0:0:0:
376,140,111336,5,2,0:2:0:0:
376,140,111512,1,2,0:2:0:0:
336,272,111689,2,2,L|252:264,1,80,4|0,0:2|0:0,0:0:0:0:
120,164,112042,2,0,L|204:172,1,80,0|8,0:0|0:3,0:0:0:0:
40,156,112395,2,2,L|16:76,1,80,4|2,0:2|0:0,0:0:0:0:
44,168,112748,5,8,0:3:0:0:
48,180,112836,1,8,0:3:0:0:
52,192,112924,1,8,0:3:0:0:
56,204,113012,1,8,0:3:0:0:
60,216,113101,2,0,P|84:252|120:272,1,80,4|0,0:0|0:0,0:0:0:0:
172,344,113454,2,0,P|204:320|244:312,1,80,0|8,0:0|0:3,0:0:0:0:
352,340,113807,1,8,0:0:0:0:
460,288,113983,6,0,L|500:216,1,80
384,172,114336,2,0,L|392:92,1,80
276,116,114689,2,0,L|244:36,1,80
144,104,115042,2,0,L|68:48,1,80,8|8,0:3|0:0,0:0:0:0:
36,168,115395,1,0,0:0:0:0:
188,180,115571,5,2,0:2:0:0:
188,180,115748,1,2,0:2:0:0:
188,180,115924,2,0,P|196:220|184:264,1,80,8|0,0:3|0:0,0:0:0:0:
108,360,116277,2,0,L|192:356,1,80,0|8,0:0|0:3,0:0:0:0:
276,300,116630,2,0,L|360:296,1,80,8|0,0:0|0:0,0:0:0:0:
448,204,116983,2,0,L|364:208,1,80,0|2,0:0|0:2,0:0:0:0:
188,180,117512,6,0,P|164:148|124:132,1,80,8|0,0:3|0:0,0:0:0:0:
304,200,117865,1,8,0:3:0:0:
304,200,118042,2,0,P|303:158|290:120,1,80,8|0,0:0|0:0,0:0:0:0:
424,64,118395,5,2,0:2:0:0:
380,272,118571,1,8,0:3:0:0:
380,272,118659,1,8,0:3:0:0:
380,272,118748,2,0,B|340:292|300:284,1,80,4|0,0:0|0:0,0:0:0:0:
208,264,119101,2,0,P|164:252|120:260,1,80,0|8,0:0|0:3,0:0:0:0:
40,288,119454,2,0,L|44:200,1,80,8|2,0:0|0:2,0:0:0:0:
108,60,119807,2,0,L|104:148,1,80,0|2,0:0|0:2,0:0:0:0:
104,352,120336,6,0,L|184:340,1,80
284,324,120689,1,8,0:3:0:0:
384,344,120865,2,0,B|400:304|400:304|432:280,1,80,8|0,0:0|0:0,0:0:0:0:
464,168,121218,5,2,0:2:0:0:
372,120,121395,1,2,0:2:0:0:
268,116,121571,2,0,P|228:132|192:132,1,80,8|0,0:3|0:0,0:0:0:0:
24,124,121924,2,0,P|64:108|100:108,1,80,0|8,0:0|0:3,0:0:0:0:
234,225,122277,6,0,P|152:232|80:208,1,160,8|0,0:0|0:0,0:0:0:0:
268,116,122807,1,0,0:0:0:0:
268,116,122983,2,0,P|348:132|364:200,1,160
400,348,123512,1,8,0:3:0:0:
400,348,123689,2,0,B|352:352|336:344|336:344|296:320|236:328,1,160,8|0,0:0|0:0,0:0:0:0:
140,356,124218,1,8,0:3:0:0:
140,356,124307,1,8,0:3:0:0:
140,356,124395,1,4,0:0:0:0:
64,168,124748,5,0,0:0:0:0:
72,180,125101,2,0,L|124:172,1,47.9999985351563,8|2,0:0|0:0,0:0:0:0:
248,152,125454,1,2,0:0:0:0:
256,144,125807,2,0,L|360:164,1,95.9999970703126
488,192,126512,1,8,0:0:0:0:
420,320,126865,6,0,L|368:332,1,47.9999985351563
216,320,127218,2,0,L|268:308,1,47.9999985351563,2|0,0:0|0:0,0:0:0:0:
332,236,127571,1,0,0:0:0:0:
332,236,127924,1,10,0:0:0:0:
248,184,128101,1,2,0:0:0:0:
332,236,128277,1,2,0:0:0:0:
96,108,128983,6,0,L|80:56,1,47.9999985351563
104,136,129336,1,2,0:0:0:0:
256,184,129689,2,2,L|272:128,1,47.9999985351563
48,352,130395,5,0,0:0:0:0:
16,276,130571,1,2,0:0:0:0:
48,352,130748,1,8,0:0:0:0:
140,324,130924,1,2,0:0:0:0:
228,344,131101,2,0,P|280:344|320:320,1,95.9999970703126,2|0,0:0|0:0,0:0:0:0:
420,224,131807,1,0,0:0:0:0:
420,216,132159,1,2,0:0:0:0:
420,208,132512,6,0,L|440:156,2,47.9999985351563,0|0|2,0:0|0:0|0:0,0:0:0:0:
232,144,133218,1,0,0:0:0:0:
144,108,133395,1,2,0:0:0:0:
56,76,133571,2,0,L|36:128,2,47.9999985351563,8|2|2,0:0|0:0|0:0,0:0:0:0:
92,264,134277,6,0,P|136:292|184:288,1,95.9999970703126
420,120,134983,2,0,P|376:92|328:96,1,95.9999970703126,10|2,0:0|0:0,0:0:0:0:
264,120,135512,1,2,0:0:0:0:
264,120,135689,1,4,0:0:0:0:
188,356,136042,5,0,0:0:0:0:
180,344,136218,2,0,L|172:276,2,64,2|0|2,0:0|0:0|0:0,0:0:0:0:
400,280,136748,1,2,0:0:0:0:
408,288,137101,2,0,P|416:220|432:160,1,128
476,48,137807,5,8,0:0:0:0:
240,96,138159,2,0,L|168:124,1,64
244,176,138512,2,0,L|312:152,1,64,6|0,0:0|0:0,0:0:0:0:
376,128,138865,1,0,0:0:0:0:
472,264,139218,6,0,P|460:296|432:312,2,64,2|0|2,0:0|0:0|0:0,0:0:0:0:
452,48,139924,1,0,0:0:0:0:
472,44,140277,2,0,P|484:112|480:176,1,128,0|2,0:0|0:0,0:0:0:0:
456,316,140983,1,2,0:0:0:0:
388,352,141159,1,2,0:0:0:0:
316,324,141336,6,0,P|268:284|204:292,1,128,2|0,0:3|0:0,0:0:0:0:
24,344,141865,2,0,L|8:272,2,64,2|8|2,0:0|0:0|0:0,0:0:0:0:
104,276,142395,1,2,0:0:0:0:
104,276,142571,2,0,P|136:216|140:152,1,128,2|2,0:3|0:3,0:0:0:0:
124,60,143101,1,0,0:0:0:0:
136,48,143454,5,8,0:0:0:0:
388,128,143807,1,0,0:0:0:0:
388,128,143983,1,0,0:0:0:0:
388,128,144159,1,2,0:0:0:0:
144,228,144512,1,0,0:0:0:0:
304,360,144865,1,2,0:0:0:0:
304,360,145042,1,0,0:0:0:0:
304,360,145218,1,2,0:0:0:0:
256,112,145571,6,0,L|172:124,1,80,8|8,0:3|0:3,0:0:0:0:
256,272,145924,2,0,L|340:260,1,80,8|8,0:3|0:3,0:0:0:0:
480,100,146277,2,0,L|396:112,1,80,8|8,0:3|0:3,0:0:0:0:
48,276,146630,1,8,0:3:0:0:
272,216,146807,1,8,0:3:0:0:
272,196,146895,1,8,0:3:0:0:
280,184,146983,6,0,P|356:164|432:200,1,160,4|0,0:0|0:0,0:0:0:0:
468,284,147512,1,8,0:3:0:0:
404,356,147689,1,8,0:0:0:0:
308,344,147866,1,0,0:0:0:0:
220,304,148042,2,0,P|180:312|128:304,2,80
172,120,148572,1,0,0:0:0:0:
112,224,148748,2,0,P|200:236|260:200,1,160,0|8,0:0|0:0,0:0:0:0:
480,108,149454,5,0,0:0:0:0:
384,88,149630,1,0,0:0:0:0:
296,132,149807,1,8,0:3:0:0:
288,152,150160,1,0,0:0:0:0:
200,196,150337,1,8,0:3:0:0:
104,176,150513,1,8,0:0:0:0:
76,68,150689,6,0,L|-12:48,1,80,2|0,0:2|0:0,0:0:0:0:
152,48,151042,2,0,L|240:68,1,80,2|0,0:2|0:0,0:0:0:0:
332,88,151395,1,8,0:3:0:0:
384,180,151572,1,0,0:0:0:0:
332,272,151748,2,0,P|344:320|368:352,1,80,8|8,0:3|0:0,0:0:0:0:
512,256,152101,2,0,P|488:172|436:124,1,160,0|8,0:0|0:3,0:0:0:0:
424,120,152542,1,8,0:3:0:0:
412,120,152630,1,4,0:0:0:0:
191,209,152983,6,0,B|228:224|228:224|268:228,1,80,0|8,0:0|0:3,0:0:0:0:
256,124,153336,2,0,P|184:100|100:120,1,160,8|0,0:0|0:0,0:0:0:0:
8,168,153865,1,2,0:2:0:0:
12,184,154218,6,0,B|16:224|-4:268,1,80,2|0,0:2|0:0,0:0:0:0:
20,368,154571,1,8,0:3:0:0:
104,292,154748,2,0,P|184:320|264:304,1,160,8|0,0:0|0:0,0:0:0:0:
372,264,155277,1,0,0:0:0:0:
372,264,155365,1,0,0:0:0:0:
372,264,155453,1,0,0:0:0:0:
144,40,155806,1,0,0:0:0:0:
84,128,155983,1,8,0:3:0:0:
120,228,156159,1,8,0:0:0:0:
268,252,156336,5,2,0:2:0:0:
336,140,156512,1,0,0:0:0:0:
208,136,156689,2,0,P|140:148|56:104,1,160,2|8,0:2|0:3,0:0:0:0:
232,124,157218,1,0,0:0:0:0:
336,100,157394,1,8,0:3:0:0:
432,148,157571,1,8,0:0:0:0:
356,340,157924,6,0,L|320:316,3,40,8|8|8|8,0:3|0:3|0:3|0:3,0:0:0:0:
292,324,158277,2,0,B|220:344|132:312,1,160,4|0,0:0|0:0,0:0:0:0:
20,332,158806,2,0,P|32:292|28:252,1,80,8|8,0:3|0:0,0:0:0:0:
24,236,159336,5,0,0:0:0:0:
8,136,159512,2,0,B|48:60|148:72,1,160
268,128,160042,2,0,L|184:152,1,80,0|8,0:0|0:3,0:0:0:0:
296,220,160395,2,0,L|376:236,2,80,8|0|0,0:0|0:0|0:0,0:0:0:0:
256,44,160924,1,8,0:3:0:0:
256,44,161012,1,8,0:3:0:0:
256,44,161100,1,8,0:3:0:0:
104,320,161454,2,0,B|76:324|76:324|49:315|49:315|24:320,2,80,0|8|8,0:0|0:3|0:0,0:0:0:0:
216,216,161983,5,2,0:2:0:0:
216,216,162159,1,0,0:0:0:0:
216,216,162336,2,0,P|300:224|368:196,1,160,2|8,0:2|0:3,0:0:0:0:
456,284,162865,2,0,L|376:300,1,80,0|8,0:0|0:3,0:0:0:0:
196,316,163218,2,0,L|276:300,1,80,8|2,0:0|0:2,0:0:0:0:
460,168,163747,5,8,0:3:0:0:
460,168,163836,1,8,0:3:0:0:
460,168,163924,2,0,L|428:84,1,80,4|0,0:0|0:0,0:0:0:0:
204,44,164277,2,0,L|292:56,1,80,0|8,0:0|0:3,0:0:0:0:
364,152,164630,1,8,0:0:0:0:
360,164,164983,6,0,L|276:188,1,80,0|0,0:0|0:0,0:0:0:0:
32,232,165513,2,0,L|116:256,1,80,0|0,0:0|0:0,0:0:0:0:
244,296,165865,2,0,L|164:304,2,80,8|8|0,0:3|0:0|0:0,0:0:0:0:
364,276,166395,5,0,0:0:0:0:
404,188,166572,1,2,0:2:0:0:
360,100,166748,1,8,0:3:0:0:
280,36,166925,2,0,P|216:48|184:44,1,80,2|0,0:2|0:0,0:0:0:0:
52,88,167278,2,0,L|132:128,1,80,8|8,0:3|0:0,0:0:0:0:
132,140,167807,5,2,0:3:0:0:
176,228,167983,1,2,0:3:0:0:
140,320,168159,2,0,P|220:344|312:328,1,160,2|2,0:2|0:2,0:0:0:0:
392,300,168689,1,8,0:3:0:0:
460,216,168865,2,0,L|472:136,1,80,8|8,0:0|0:3,0:0:0:0:
324,44,169218,6,0,L|312:124,1,80,8|8,0:0|0:3,0:0:0:0:
340,232,169571,2,0,B|304:248|264:256|264:256|224:232|224:232|188:232,1,160,4|0,0:0|0:0,0:0:0:0:
176,232,170277,5,8,0:0:0:0:
128,296,170454,1,2,0:3:0:0:
53,270,170630,1,2,0:2:0:0:
54,190,170807,1,2,0:3:0:0:
132,168,170983,2,0,P|220:172|276:124,1,160,2|2,0:2|0:2,0:0:0:0:
332,32,171512,1,8,0:3:0:0:
392,136,171689,6,0,L|476:156,1,80,8|0,0:0|0:0,0:0:0:0:
256,52,172042,2,0,L|168:60,1,80,0|0,0:0|0:0,0:0:0:0:
76,68,172395,1,8,0:3:0:0:
56,80,172748,5,2,0:2:0:0:
12,180,172924,2,0,L|92:156,1,80,8|8,0:3|0:0,0:0:0:0:
264,296,173277,2,0,L|112:232,1,160,2|8,0:2|0:3,0:0:0:0:
248,204,173807,2,0,P|336:236|356:300,1,160,2|0,0:2|0:0,0:0:0:0:
496,188,174512,6,0,L|512:96,1,80,8|8,0:0|0:3,0:0:0:0:
416,124,174865,2,0,L|408:36,1,80,2|8,0:2|0:3,0:0:0:0:
312,84,175218,2,0,P|244:52|160:64,1,160,2|0,0:2|0:0,0:0:0:0:
28,252,175924,6,0,L|20:172,1,80,8|0,0:0|0:0,0:0:0:0:
76,16,176277,2,0,L|84:96,1,80,2|0,0:2|0:0,0:0:0:0:
116,192,176630,2,0,P|184:216|272:200,1,160,2|0,0:2|0:0,0:0:0:0:
436,104,177336,6,0,L|356:92,1,80,8|0,0:0|0:0,0:0:0:0:
192,108,177689,2,0,L|272:120,1,80,2|0,0:2|0:0,0:0:0:0:
344,184,178042,2,0,P|352:228|340:268,2,80,8|0|0,0:3|0:0|0:0,0:0:0:0:
84,96,178748,5,8,0:0:0:0:
76,192,178925,1,0,0:0:0:0:
120,276,179101,1,2,0:2:0:0:
200,328,179278,1,8,0:3:0:0:
120,276,179454,2,0,P|88:304|68:344,2,80,2|8|0,0:2|0:3|0:0,0:0:0:0:
392,248,180159,6,0,L|472:276,1,80,8|8,0:0|0:3,0:0:0:0:
456,156,180512,1,0,0:0:0:0:
352,112,180689,1,8,0:3:0:0:
348,104,180777,1,8,0:3:0:0:
344,96,180865,2,0,P|268:116|184:108,1,160,4|0,0:0|0:0,0:0:0:0:
8,20,181571,6,0,L|-8:112,1,80,8|0,0:0|0:0,0:0:0:0:
48,224,181924,2,0,L|64:132,1,80,2|0,0:2|0:0,0:0:0:0:
84,48,182277,2,0,B|140:64|140:64|188:48|240:52,1,160,2|0,0:2|0:0,0:0:0:0:
312,240,182983,6,0,P|272:252|232:252,1,80,8|0,0:0|0:0,0:0:0:0:
160,140,183336,2,0,P|200:128|240:128,1,80,2|8,0:2|0:3,0:0:0:0:
484,144,183689,2,0,P|420:168|332:152,1,160,8|0,0:3|0:0,0:0:0:0:
464,264,184395,6,0,L|484:364,1,80,8|0,0:0|0:0,0:0:0:0:
368,376,184748,2,0,L|380:297,1,80,2|8,0:2|0:3,0:0:0:0:
292,284,185101,2,0,P|228:324|144:312,1,160,2|8,0:2|0:3,0:0:0:0:
0,192,185807,5,8,0:0:0:0:
64,116,185983,1,0,0:0:0:0:
156,80,186159,1,2,0:2:0:0:
256,96,186336,1,8,0:3:0:0:
256,96,186424,1,8,0:3:0:0:
256,96,186512,2,0,B|316:144|344:88|408:136,1,160,4|0,0:0|0:0,0:0:0:0:
348,200,187042,6,0,P|308:208|280:240,1,80,8|8,0:3|0:0,0:0:0:0:
88,336,187571,1,8,0:3:0:0:
88,336,187748,2,0,P|176:344|232:296,1,160,0|2,0:0|0:3,0:0:0:0:
40,52,188454,1,8,0:3:0:0:
40,52,188630,5,8,0:0:0:0:
40,172,188807,1,2,0:2:0:0:
140,240,188983,1,0,0:0:0:0:
120,128,189159,1,8,0:3:0:0:
120,128,189248,1,8,0:3:0:0:
120,128,189336,2,0,P|204:112|272:152,1,160,4|0,0:0|0:0,0:0:0:0:
340,296,190042,1,8,0:0:0:0:
232,36,190395,1,8,0:3:0:0:
256,192,190748,12,4,192159,0:0:0:0:
