osu file format v12

[General]
AudioFilename: mepeetree - 1.mp3
AudioLeadIn: 0
PreviewTime: 43836
Countdown: 0
SampleSet: Normal
StackLeniency: 0.7
Mode: 0
LetterboxInBreaks: 0

[Editor]
DistanceSpacing: 1
BeatDivisor: 4
GridSize: 4

[Metadata]
Title:Hall of Fame
TitleUnicode:Hall of Fame
Artist:The Script ft. will.i.am
ArtistUnicode:The Script ft. will.i.am
Creator:Aleks719
Version:Easy
Source:
Tags:kyshiro hip hop
BeatmapID:261169
BeatmapSetID:96147

[Difficulty]
HPDrainRate:2
CircleSize:3
OverallDifficulty:2
ApproachRate:3
SliderMultiplier:1.2
SliderTickRate:2

[Events]
//Background and Video events
0,0,"123.jpg",0,0
//Break Periods
2,68124,72131
2,124595,134249
//Storyboard Layer 0 (Background)
//Storyboard Layer 1 (Fail)
//Storyboard Layer 2 (Pass)
//Storyboard Layer 3 (Foreground)
//Storyboard Sound Samples
//Background Colour Transformations
3,100,128,128,192

[TimingPoints]
160,705.882352941176,4,1,0,50,1,0
21689,-100,4,1,0,60,0,0
45336,-100,4,1,0,65,0,1
67924,-100,4,1,0,60,0,0
90512,-100,4,1,0,65,0,1
111159,-100,4,1,0,55,0,1
113101,-100,4,1,0,55,0,0
135689,-100,4,1,0,40,0,0
145571,-100,4,1,0,60,0,0
146983,-100,4,1,0,65,0,1
168865,-100,4,1,0,60,0,0

[Colours]
Combo1 : 0,187,187
Combo2 : 104,160,179
Combo3 : 18,124,255
Combo4 : 128,128,255

[HitObjects]
72,260,21689,1,8,0:3:0:0:
72,260,22042,2,0,L|192:236,1,120,8|4,0:0|0:0,0:0:0:0:
216,120,23454,2,0,P|268:144|332:136,1,120,8|2,0:0|0:2,0:0:0:0:
436,84,24865,6,0,L|496:96,2,60,8|0|8,0:0|0:0|0:3,0:0:0:0:
336,20,26277,1,8,0:0:0:0:
220,52,26983,1,2,0:2:0:0:
128,132,27689,6,0,P|140:188|132:252,1,120,8|8,0:0|0:3,0:0:0:0:
240,308,29101,2,0,P|228:252|236:188,1,120,8|2,0:0|0:2,0:0:0:0:
344,244,30512,6,0,P|356:300|348:364,1,120,8|8,0:0|0:3,0:0:0:0:
456,304,31924,2,0,P|444:232|456:152,1,150,8|2,0:0|0:2,0:0:0:0:
476,68,33336,6,0,B|416:76|416:76|356:68,1,120,2|8,0:3|0:3,0:0:0:0:
316,180,34748,2,0,P|336:236|316:292,1,120,8|0,0:0|0:0,0:0:0:0:
195,290,36159,6,0,P|176:236|196:180,1,120,8|8,0:0|0:3,0:0:0:0:
154,68,37571,2,0,B|96:76|96:76|36:68,1,120,8|2,0:0|0:2,0:0:0:0:
96,172,38983,5,8,0:0:0:0:
200,232,39689,1,4,0:0:0:0:
320,228,40395,2,0,P|384:176|452:180,1,150,8|2,0:0|0:2,0:0:0:0:
408,268,41807,5,8,0:0:0:0:
352,372,42512,1,2,0:2:0:0:
196,192,43924,5,2,0:2:0:0:
316,192,44630,1,2,2:2:0:0:
256,88,45336,5,4,0:0:0:0:
360,152,46042,2,0,P|256:204|152:152,1,240,8|8,0:0|0:0,0:0:0:0:
92,256,48159,6,0,P|136:296|200:316,1,120,2|8,0:2|0:0,0:0:0:0:
319,315,49571,2,0,P|376:296|420:256,2,120,0|8|4,0:0|0:0|0:0,0:0:0:0:
316,196,51689,6,0,P|256:120|356:124,2,240,8|8|8,0:0|0:0|0:0,0:0:0:0:
432,224,55218,1,2,0:2:0:0:
492,328,55924,1,8,0:0:0:0:
372,328,56630,1,4,0:0:0:0:
256,352,57336,6,0,P|164:280|44:304,2,240,8|8|8,0:0|0:0|0:0,0:0:0:0:
264,232,60865,2,0,P|244:176|256:116,1,120,2|8,0:2|0:0,0:0:0:0:
368,164,62277,1,4,0:0:0:0:
372,284,62983,6,0,P|284:348|168:304,1,240,8|8,0:0|0:0,0:0:0:0:
88,216,65101,2,0,P|112:164|160:124,1,120,2|8,0:2|0:0,0:0:0:0:
208,236,66512,1,2,0:2:0:0:
128,324,67218,1,2,0:2:0:0:
8,344,67924,5,4,0:2:0:0:
316,336,73571,6,0,P|376:328|428:360,2,120,4|8|2,0:0|0:0|0:2,0:0:0:0:
196,336,75689,2,0,P|136:328|84:360,2,120,8|2|8,0:0|0:2|0:0,0:0:0:0:
256,232,77807,1,2,0:2:0:0:
196,128,78512,6,0,L|180:64,2,60,8|2|8,0:0|0:2|0:3,0:0:0:0:
316,128,79924,2,0,L|332:64,2,60,8|2|0,0:0|0:2|0:0,0:0:0:0:
300,248,81336,6,0,P|308:308|348:348,1,120,8|2,0:0|0:2,0:0:0:0:
456,292,82748,2,0,P|448:232|408:192,1,120,8|2,0:0|0:2,0:0:0:0:
292,160,84159,6,0,P|238:131|214:80,1,120,8|4,0:0|0:3,0:0:0:0:
128,164,85571,2,0,P|181:192|205:243,1,120,8|2,0:0|0:2,0:0:0:0:
144,348,86983,2,0,P|240:360|312:300,1,180,8|2,0:0|0:2,0:0:0:0:
404,164,89101,6,0,L|468:176,4,60,8|8|8|8|4,0:3|0:3|0:3|0:3|0:0,0:0:0:0:
288,136,91218,6,0,P|180:172|100:88,2,240,8|8|8,0:0|0:0|0:0,0:0:0:0:
328,24,94748,2,0,P|376:56|404:112,1,120,0|8,0:2|0:0,0:0:0:0:
400,232,96159,1,4,0:0:0:0:
332,328,96865,6,0,P|212:352|136:272,2,240,8|8|8,0:0|0:0|0:0,0:0:0:0:
252,236,100395,2,0,P|216:188|152:168,2,120,2|8|4,0:2|0:0|0:0,0:0:0:0:
368,204,102512,6,0,P|312:104|200:48,2,240,8|8|8,0:0|0:0|0:0,0:0:0:0:
364,324,106042,1,2,0:2:0:0:
472,268,106748,1,8,0:0:0:0:
480,148,107454,1,4,0:0:0:0:
412,48,108159,6,0,L|172:60,1,240,8|8,0:0|0:0,0:0:0:0:
52,68,110277,2,0,P|64:128|48:188,1,120,2|8,0:2|0:0,0:0:0:0:
152,248,111689,2,0,P|140:188|156:128,1,120,4|8,0:2|0:0,0:0:0:0:
260,188,113101,6,0,B|336:168|336:168|380:176,1,120,4|8,0:0|0:0,0:0:0:0:
492,212,114512,1,2,0:2:0:0:
464,96,115218,1,8,0:0:0:0:
356,44,115924,6,0,P|316:80|248:76,1,120,2|8,0:2|0:0,0:0:0:0:
136,52,117336,1,0,0:0:0:0:
20,76,118042,1,8,0:0:0:0:
100,168,118748,6,0,P|144:204|152:268,1,120,4|8,0:0|0:0,0:0:0:0:
264,308,120159,2,0,P|300:264|364:256,1,120,0|8,0:0|0:0,0:0:0:0:
476,284,121571,1,2,0:2:0:0:
256,192,122277,12,4,124395,0:0:0:0:
32,160,135689,6,0,P|88:140|148:152,1,120,4|10,0:0|0:0,0:0:0:0:
200,180,136748,2,0,B|256:204|256:204|312:180,1,120,2|0,0:0|0:0,0:0:0:0:
365,151,137807,2,0,P|423:139|479:159,1,120,8|2,0:0|0:0,0:0:0:0:
376,240,139218,5,2,0:0:0:0:
316,248,139571,1,2,0:0:0:0:
196,248,140277,1,2,0:0:0:0:
136,240,140630,1,2,0:0:0:0:
16,220,141336,5,4,0:0:0:0:
64,328,142042,2,0,L|124:340,1,60,10|2,0:0|0:0,0:0:0:0:
240,356,143101,2,0,L|304:348,1,60,0|8,0:0|0:0,0:0:0:0:
420,336,144159,1,2,0:0:0:0:
456,288,144512,1,2,2:2:0:0:
456,228,144865,1,2,0:2:0:0:
432,112,145571,6,0,L|464:56,4,60,8|8|8|8|4,0:3|0:3|0:3|0:3|0:0,0:0:0:0:
360,208,147689,6,0,P|256:156|152:208,1,240,8|8,0:0|0:0,0:0:0:0:
92,104,149806,2,0,P|136:64|192:44,1,120,0|8,0:0|0:0,0:0:0:0:
319,45,151218,2,0,P|376:64|420:104,2,120,0|8|4,0:0|0:0|0:0,0:0:0:0:
300,164,153336,6,0,P|256:251|212:164,2,240,8|8|8,0:0|0:0|0:0,0:0:0:0:
256,52,156865,1,0,0:0:0:0:
140,76,157571,1,8,0:0:0:0:
56,164,158277,5,4,0:0:0:0:
72,284,158983,2,0,B|156:368|224:312|288:376,2,240,8|8|8,0:0|0:0|0:0,0:0:0:0:
172,216,162512,6,0,P|228:192|264:144,1,120,2|8,0:2|0:0,0:0:0:0:
252,28,163924,1,4,0:0:0:0:
156,96,164630,6,0,P|60:172|72:284,1,240,8|8,0:0|0:0,0:0:0:0:
144,376,166748,2,0,B|196:368|188:320|244:312,1,120,0|8,0:0|0:0,0:0:0:0:
300,300,167807,1,8,0:0:0:0:
360,312,168159,2,0,L|424:308,2,60,2|2|4,0:2|0:2|0:2,0:0:0:0:
300,208,169571,6,0,P|256:172|264:112,1,120,4|8,0:0|0:0,0:0:0:0:
288,60,170630,2,0,L|232:36,1,60,2|0,0:2|0:0,0:0:0:0:
196,152,171689,6,0,L|140:128,1,60,8|2,0:0|0:2,0:0:0:0:
84,108,172395,2,0,P|48:156|56:216,1,120,0|8,0:0|0:0,0:0:0:0:
88,264,173454,2,0,P|108:308|104:348,1,90,8|2,0:3|0:2,0:0:0:0:
16,320,174512,5,8,0:0:0:0:
16,320,174865,1,2,0:2:0:0:
16,320,175218,2,0,P|8:260|12:200,2,120,4|8|2,0:0|0:0|0:2,0:0:0:0:
128,276,177336,5,8,0:0:0:0:
184,252,177689,1,2,0:2:0:0:
244,240,178042,2,0,P|324:248|368:236,2,120,2|8|2,0:2|0:0|0:2,0:0:0:0:
304,136,180159,6,0,L|296:72,1,60,8|2,0:0|0:2,0:0:0:0:
356,88,180865,2,0,L|388:32,1,60,4|2,0:0|0:2,0:0:0:0:
428,80,181571,2,0,L|488:48,2,60,8|2|2,0:0|0:2|0:3,0:0:0:0:
372,188,182983,6,0,P|320:216|256:208,1,120,8|2,0:0|0:2,0:0:0:0:
144,176,184395,1,8,0:0:0:0:
96,140,184748,1,2,0:2:0:0:
76,84,185101,1,2,0:2:0:0:
196,72,185807,5,8,0:0:0:0:
196,72,186159,1,2,0:2:0:0:
196,72,186512,2,0,B|240:112|240:112|252:176,1,120,4|8,0:0|0:0,0:0:0:0:
252,232,187571,2,0,P|244:280|252:324,1,90,8|2,0:3|0:2,0:0:0:0:
164,348,188630,6,0,P|104:368|44:356,1,120,8|2,0:0|0:2,0:0:0:0:
0,320,189689,1,2,0:2:0:0:
12,260,190042,2,0,L|4:196,1,60,8|8,0:0|0:3,0:0:0:0:
256,192,190748,12,4,192159,0:0:0:0:
