osu file format v5

[General]
AudioFilename: The Office Theme Song.mp3
AudioLeadIn: 2007
PreviewTime: 5677
Countdown: 1
SampleSet: Soft
StackLeniency: 0.5
Mode: 0
LetterboxInBreaks: 1
EditorBookmarks: 17326

[Metadata]
Title:The Office Theme
Artist:The Scrantones
Creator:0_o
Version:Normal
Source:The Office (American)
Tags:office theme

[Difficulty]
HPDrainRate:6
CircleSize:5
OverallDifficulty:6
SliderMultiplier:1.2
SliderTickRate:1

[Events]
//Background and Video events
0,0,"theoffice.jpg"
//Break Periods
//Storyboard Layer 0 (Background)
//Storyboard Layer 1 (Failing)
//Storyboard Layer 2 (Passing)
//Storyboard Layer 3 (Foreground)
//Storyboard Sound Samples
//Background Colour Transformations
3,100,163,162,255

[TimingPoints]
30,352.941176470588,4,2,0,70,1
17149,-100,4,1,0,65,0
28796,-100,4,2,0,49,0

[Colours]
Combo1 : 130,115,157
Combo2 : 209,209,209
Combo3 : 149,149,149
Combo4 : 255,176,98

[HitObjects]
112,320,30,1,0
95,281,206,1,0
77,242,382,1,2
192,120,1088,1,2
256,64,1441,1,0
288,32,1618,1,0
320,64,1794,1,2
464,152,2500,5,2
464,232,2853,1,0
424,248,3029,1,0
384,264,3206,1,2
256,160,3912,1,0
192,96,4265,1,0
272,96,4618,1,2
352,96,4971,2,2,B|224:96,1,120,0|2
272,168,5677,1,6
192,208,6029,6,0,B|104:264|48:232|8:144|64:64,2,240,0|0|0
264,160,7794,1,0
336,112,8147,1,2
416,72,8500,2,0,B|480:200|424:264|376:304|312:296|232:216,1,360,2|0
168,176,9912,1,0
232,88,10265,1,2
296,176,10618,2,0,B|368:176,2,60,0|2|0
232,176,11147,2,0,L|232:248,1,60,0|0
88,320,11677,5,0
128,176,12029,2,0,L|224:80|304:160|384:80|464:192,1,480,0|2
456,88,13794,1,0
454,176,14147,1,2
320,272,14853,5,0
240,232,15206,1,2
168,192,15559,1,0
240,152,15912,1,2
312,192,16265,1,0
312,152,16441,2,0,B|312:80,2,60,2|0|2
312,152,16971,1,6
224,112,17324,6,0,B|64:176,4,120,0|0|8|0|10
328,80,19088,1,0
328,80,19265,1,0
368,96,19441,1,8
368,96,19618,1,0
408,112,19794,2,0,B|440:192|376:256,3,120,8|2|8|2
400,224,21206,1,8
400,320,21559,1,8
400,224,21912,1,2
400,176,22088,1,2
352,200,22265,1,8
352,152,22441,1,0
304,176,22618,1,14
256,256,22971,5,0
256,352,23324,2,8,B|32:240|528:240|208:80,1,360,0|8
176,56,24735,2,0,B|224:104|176:168,2,120,2|8|10
96,112,25794,1,0
48,192,26147,2,2,B|88:280|168:168|216:280,1,180,10|0
240,288,26853,2,0,B|304:336|352:288,2,120,8|10|0
269,250,27735,1,2
295,208,27912,2,0,B|295:80,1,120,10|14
256,192,28794,12,4,31265
