osu file format v5

[General]
AudioFilename: boinktuma.mp3
AudioLeadIn: 0
PreviewTime: -1
Countdown: 1
SampleSet: Normal
StackLeniency: 0.7
Mode: 0
LetterboxInBreaks: 1

[Metadata]
Title:BOINKtuma
Artist:The Scout
Creator:Girrig
Version:Hard
Source:
Tags:

[Difficulty]
HPDrainRate:8
CircleSize:5
OverallDifficulty:8
SliderMultiplier:1.4
SliderTickRate:4

[Events]
//Background and Video events
0,0,"The Scout.jpg"
1,0,"video.avi"
//Break Periods
//Storyboard Layer 0 (Background)
//Storyboard Layer 1 (Failing)
//Storyboard Layer 2 (Passing)
//Storyboard Layer 3 (Foreground)
//Storyboard Sound Samples
//Background Colour Transformations
3,100,163,162,255

[TimingPoints]
761.20540678571,605.428138265615,4,1,0,100,1,0

[Colours]
Combo1 : 255,255,0
Combo2 : 255,0,0
Combo3 : 0,0,160
Combo4 : 0,255,0

[HitObjects]
32,32,4847,1,0
64,32,5150,1,0
96,32,5453,1,0
160,32,5755,2,0,B|256:32,1,70
230,32,6361,1,0
256,32,6664,1,0
288,32,6966,2,0,B|384:32,1,70
358,32,7572,1,0
416,32,7874,1,0
448,32,8177,1,0
480,32,8480,1,0
480,64,8783,1,0
480,96,9085,1,0
480,192,9691,5,0
448,192,9993,1,0
416,192,10296,1,0
384,192,10750,1,0
352,192,10902,1,0
320,192,11204,1,0
288,192,11507,1,0
256,192,11810,1,0
256,192,12112,2,0,B|192:192|192:192|160:160|160:160|192:128|192:128|224:128|224:128|256:128|256:128|288:160|288:160|288:192,1,280
288,256,13626,1,0
288,256,13929,1,0
256,192,14534,5,0
224,192,14837,2,0,B|128:192,1,70
96,192,15291,2,0,B|96:128,1,35
160,160,15594,2,0,B|160:64,1,70
160,96,16048,1,0
160,96,16350,1,0
224,96,16653,5,0
256,96,16956,1,0
288,96,17259,1,0
320,96,17410,2,0,B|320:160,1,35
352,128,17713,1,0
384,128,17864,2,0,B|384:192,1,35
384,192,18167,2,0,B|384:256,1,35
416,256,18469,1,0
416,256,18772,1,0
416,320,19075,5,0
256,192,19378,12,0,23767
256,192,24221,5,0
256,160,24524,1,0
256,128,24826,1,0
256,96,25129,2,0,B|352:96,1,70
352,128,25735,1,0
384,160,26037,1,0
384,192,26340,2,0,B|480:192,1,70
480,224,26945,1,0
480,256,27248,1,0
448,288,27551,1,0
416,320,27854,1,0
384,352,28156,1,0
352,352,28459,1,0
288,352,29064,6,0,B|192:352,1,70
192,320,29670,1,0
192,288,30124,1,0
192,256,30275,1,0
192,192,30578,1,0
192,160,30881,1,0
288,64,31183,1,0
352,96,31486,1,0
320,128,31638,1,0
352,160,31789,1,0
320,192,31940,1,0
352,224,32092,1,0
320,256,32243,1,0
352,288,32394,1,0
320,320,32546,1,0
352,352,32697,2,0,B|352:128,1,210
320,96,33908,5,0
352,96,34211,1,0
384,96,34362,1,0
384,128,34513,1,0
384,160,34665,1,0
384,192,34816,2,0,B|288:192,1,70
288,224,35421,1,0
288,224,35724,1,0
288,160,36027,5,0
256,160,36330,1,0
224,160,36632,1,0
192,160,36784,2,0,B|64:160,1,105
96,160,37540,1,0
96,96,37843,1,0
96,32,38146,1,0
160,32,38449,5,0
224,32,38751,1,0
288,32,39054,1,0
352,32,39205,2,0,B|480:32,1,105
480,64,39962,2,0,B|480:192,1,105
448,192,40568,1,0
416,192,40870,5,0
384,192,41173,1,0
352,192,41476,1,0
256,192,41778,12,0,42989
