osu file format v9

[General]
AudioFilename: The Red Jumpsuit Apparatus - False Pretense.mp3
AudioLeadIn: 1985
PreviewTime: 74435
Countdown: 0
SampleSet: Normal
StackLeniency: 0.7
Mode: 0
LetterboxInBreaks: 1

[Editor]
DistanceSpacing: 0.9
BeatDivisor: 4
GridSize: 8

[Metadata]
Title:False Pretense
Artist:The Red Jumpsuit Apparatus
Creator:KanaRin
Version:Normal
Source:
Tags:Kiiwa Alace aesopl19193

[Difficulty]
HPDrainRate:4
CircleSize:3
OverallDifficulty:3
ApproachRate:4
SliderMultiplier:0.999999999999999
SliderTickRate:1

[Events]
//Background and Video events
0,0,"RedJumpsuitApparatus-YourGuardianAn.jpg"
//Break Periods
2,87479,98346
2,112253,116540
//Storyboard Layer 0 (Background)
//Storyboard Layer 1 (Fail)
//Storyboard Layer 2 (Pass)
//Storyboard Layer 3 (Foreground)
//Storyboard Sound Samples
//Background Colour Transformations
3,100,163,162,255

[TimingPoints]
570,387.096774193548,4,1,1,55,1,0
23699,-100,4,1,0,55,0,0
24182,-100,4,1,1,55,0,0
37731,-100,4,1,1,55,0,1
49731,-100,4,1,1,55,0,0
60763,-100,4,1,0,55,0,0
61344,-100,4,1,1,55,0,0
74892,-100,4,1,1,55,0,1
86892,-100,4,1,1,55,0,0
118247,-100,4,1,1,70,0,1
130634,-100,4,1,1,70,0,0

[Colours]
Combo1 : 128,255,128
Combo2 : 128,255,255
Combo3 : 255,255,128

[HitObjects]
144,144,570,1,4
240,48,1150,1,0
368,96,1731,1,4
368,232,2311,1,0
240,272,2892,2,0,B|136:272,1,99.9999999999999
48,272,3666,5,4
96,144,4247,1,0
208,72,4828,1,4
344,48,5408,1,0
480,64,5989,2,0,B|480:168,1,99.9999999999999
480,264,6763,5,4
368,336,7344,1,0
256,264,7924,1,4
128,336,8505,1,0
8,272,9086,1,0
256,192,9473,12,4,11215
112,120,13344,5,8
200,120,13731,1,0
288,120,14118,1,8
408,256,14892,1,8
320,256,15279,1,0
232,256,15666,1,8
232,80,16440,5,8
320,80,16828,1,0
408,80,17215,1,8
320,232,17989,1,8
232,232,18376,1,0
144,232,18763,1,8
160,144,19150,5,0
176,56,19537,2,0,B|256:48|312:112|304:184,1,200,2|0
216,192,20699,1,0
128,208,21086,2,0,B|120:288|184:344|256:336,1,200,2|0
336,328,22247,5,0
408,272,22634,1,8
336,224,23021,2,0,B|336:168,2,50,0|0|8
248,224,23795,5,2
248,224,23989,1,2
160,224,24376,5,0
120,144,24763,1,0
160,64,25150,1,4
368,48,25731,5,8
424,120,26118,1,0
472,192,26505,1,8
296,216,27279,1,8
216,176,27666,1,0
224,264,28053,1,8
208,88,28828,5,8
368,160,29602,1,8
224,264,30376,1,8
304,304,30763,1,0
296,216,31150,1,8
376,256,31537,5,0
448,200,31924,2,0,B|512:232|512:328|456:368,1,200,8|8
368,368,33086,1,0
280,368,33473,2,0,B|176:368,2,99.9999999999999,8|0|8
320,288,34634,5,0
352,208,35021,1,0
264,208,35408,1,0
304,128,35795,1,0
216,128,36182,2,0,B|112:128,2,99.9999999999999
304,128,37344,1,0
392,128,37731,6,0,B|416:200|400:280,2,150,4|0|0
320,72,39279,1,0
232,56,39666,1,8
144,64,40053,1,0
64,104,40440,1,8
96,184,40828,6,0,B|120:256|96:336,2,150
184,192,42376,2,0,B|232:176|280:152,1,99.9999999999999,8|0
328,224,43150,2,0,B|288:248|232:264,1,99.9999999999999,8|0
280,344,43924,6,0,B|432:344,2,150,4|0|0
208,296,45473,1,0
280,240,45860,1,8
208,192,46247,1,0
272,136,46634,1,8
256,192,47021,12,0,48957
120,144,50505,6,0,B|208:88|208:88|312:88,1,200,8|8
312,176,51666,1,0
376,240,52053,2,0,B|288:296|288:296|184:296,1,200,8|8
256,120,53602,6,0,B|152:120|152:120|80:184,3,200,8|8|8|8
176,328,56699,5,8
264,328,57086,1,0
352,328,57473,1,8
472,192,58247,1,8
384,192,58634,1,0
296,192,59021,1,8
184,56,59795,6,0,B|288:48|384:56,1,200,8|8
472,72,60957,5,2
472,72,61150,1,2
408,152,61537,5,0
432,240,61924,1,0
456,328,62311,1,4
304,360,62892,6,0,B|200:360,2,99.9999999999999,8|0|8
272,272,64053,1,0
240,184,64440,2,0,B|136:184,2,99.9999999999999,8|0|8
328,184,65602,1,0
416,184,65989,1,8
464,104,66376,5,0
408,32,66763,2,0,B|304:32,1,99.9999999999999,8|0
256,112,67537,1,8
168,80,67924,1,0
80,112,68311,2,0,B|80:216,1,99.9999999999999,8|0
80,304,69086,5,8
352,368,69860,1,8
432,96,70634,1,8
160,40,71408,1,8
160,40,71795,5,0
128,128,72182,1,0
224,160,72569,1,0
168,240,72957,1,0
264,264,73344,6,0,B|296:312,6,50
352,200,74892,5,4
392,120,75279,1,8
304,120,75666,1,0
304,32,76053,1,8
224,72,76440,2,0,B|152:0,1,99.9999999999999,0|8
112,80,77215,2,0,B|184:152,1,99.9999999999999,0|8
104,192,77989,5,0
104,280,78376,1,8
192,272,78763,1,0
232,352,79150,1,8
304,296,79537,2,0,B|400:328,1,99.9999999999999,0|8
448,256,80311,2,0,B|352:224,1,99.9999999999999,0|8
400,144,81086,6,0,B|328:64,1,99.9999999999999,4|8
248,48,81860,1,0
160,72,82247,1,8
112,152,82634,2,0,B|72:248,1,99.9999999999999,0|8
112,328,83408,2,0,B|216:328,1,99.9999999999999,0|8
304,328,84182,5,4
360,256,84569,1,8
448,256,84957,2,0,B|480:104,1,150,0|4
256,192,85731,12,0,87279
104,232,99666,5,0
168,168,100053,1,8
248,128,100440,1,0
336,104,100828,1,8
336,104,101021,2,0,B|416:96|488:96,2,150
336,104,102376,1,8
424,208,102763,5,0
360,272,103150,1,8
280,312,103537,1,0
192,336,103925,1,8
192,336,104118,2,0,B|112:344|40:344,2,150
192,336,105473,1,8
328,344,105860,5,0
384,272,106247,1,8
424,192,106634,1,0
456,104,107021,1,8
456,104,107215,2,0,B|400:64|320:40,2,150
456,104,108569,1,8
480,192,108957,5,0
480,192,109150,1,8
416,256,109537,1,0
416,256,109731,1,8
352,192,110118,1,0
256,192,110311,12,4,112053
96,176,117860,5,0
176,216,118247,2,0,B|256:200|320:160,2,150,4|0|0
192,304,119795,1,0
272,352,120182,1,8
304,264,120569,1,0
384,312,120957,1,8
416,232,121344,6,0,B|432:160|480:88,2,150
336,184,122892,1,0
248,176,123279,1,8
160,192,123666,1,0
88,248,124053,1,8
40,176,124440,6,0,B|48:104|80:32,2,150,4|0|0
80,256,125989,1,0
168,240,126376,1,8
208,320,126763,1,0
296,304,127150,1,8
384,288,127537,6,0,B|416:136,2,150
336,280,128892,2,0,B|304:288|264:304|264:304|224:288|184:280,1,150,0|8
88,88,130247,5,8
88,88,130634,1,4
224,80,131215,1,0
232,216,131795,1,0
96,224,132376,1,0
200,136,132957,6,0,B|304:136,1,99.9999999999999
392,136,133731,1,4
408,272,134311,1,0
272,304,134892,1,0
256,168,135473,1,0
368,248,136053,6,0,B|264:248,1,99.9999999999999
176,248,136828,1,4
208,120,137408,1,0
336,72,137989,1,0
472,120,138569,1,0
488,256,139150,6,0,B|488:368,1,99.9999999999999
392,360,139924,1,4
288,272,140505,1,0
160,312,141086,1,0
256,192,141279,12,4,143021
