osu file format v9

[General]
AudioFilename: The Red Jumpsuit Apparatus - False Pretense.mp3
AudioLeadIn: 0
PreviewTime: 74435
Countdown: 0
SampleSet: Normal
StackLeniency: 0.7
Mode: 0
LetterboxInBreaks: 1

[Editor]
Bookmarks: 13344
DistanceSpacing: 1
BeatDivisor: 4
GridSize: 4

[Metadata]
Title:False Pretense
Artist:The Red Jumpsuit Apparatus
Creator:KanaRin
Version:Kiiwa
Source:
Tags:Kiiwa Alace aesopl19193

[Difficulty]
HPDrainRate:5
CircleSize:4
OverallDifficulty:6
ApproachRate:8
SliderMultiplier:1.6
SliderTickRate:1

[Events]
//Background and Video events
0,0,"RedJumpsuitApparatus-YourGuardianAn.jpg"
//Break Periods
2,87479,98916
2,112253,116142
//Storyboard Layer 0 (Background)
//Storyboard Layer 1 (Fail)
//Storyboard Layer 2 (Pass)
//Storyboard Layer 3 (Foreground)
//Storyboard Sound Samples
//Background Colour Transformations
3,100,163,162,255

[TimingPoints]
570,387.096774193548,4,1,1,60,1,0
23795,-100,4,1,1,60,0,0
25537,-100,4,1,1,50,0,0
35795,-100,4,1,1,45,0,0
36957,-100,4,1,1,40,0,0
37731,-100,4,1,1,60,0,1
48957,-100,4,1,1,60,0,1
49150,-100,4,1,1,70,0,1
49344,-100,4,1,0,50,0,1
49731,-100,4,1,1,60,0,1
49924,-100,4,1,1,70,0,1
50118,-100,4,1,1,50,0,0
52440,-100,4,1,1,60,0,0
53215,-100,4,1,1,50,0,0
55537,-100,4,1,1,60,0,0
56311,-100,4,1,1,50,0,0
58634,-100,4,1,1,60,0,0
59408,-100,4,1,1,50,0,0
60957,-100,4,1,1,60,0,0
62505,-100,4,1,1,50,0,0
72569,-100,4,1,1,45,0,0
73344,-100,4,1,1,40,0,0
74118,-100,4,1,1,35,0,0
74892,-100,4,1,1,50,0,1
86118,-100,4,1,1,60,0,1
86311,-100,4,1,1,70,0,1
86505,-100,4,1,0,50,0,1
86892,-100,4,1,1,60,0,1
87086,-100,4,1,1,70,0,1
87279,-100,4,1,0,50,0,0
108957,-100,4,1,1,60,0,0
116892,-100,4,1,1,30,0,0
117279,-100,4,1,1,40,0,0
117666,-100,4,1,1,50,0,0
118247,-100,4,1,1,60,0,1
129473,-100,4,1,1,60,0,1
129666,-100,4,1,1,70,0,1
129860,-100,4,1,0,50,0,1
130247,-100,4,1,1,60,0,1
130440,-100,4,1,1,70,0,1
130634,-100,4,1,1,60,0,0

[Colours]
Combo1 : 128,255,128
Combo2 : 128,255,255
Combo3 : 255,255,128

[HitObjects]
92,232,13344,6,0,B|248:288,1,160,8|0
228,200,13924,1,0
228,200,14118,2,0,B|304:232,1,80,8|0
361,175,14505,1,0
421,119,14699,5,0
364,52,14892,1,8
300,116,15086,1,0
236,52,15279,1,0
172,112,15473,1,0
108,52,15666,2,0,B|56:56|48:120|52:176|140:164,1,160,8|0
256,252,16440,6,0,B|224:340,1,80,8|0
168,260,16828,1,0
168,260,17021,2,0,B|136:348,2,80,0|8|0
80,268,17602,1,0
256,252,17989,1,8
224,80,18376,1,0
312,72,18569,5,0
400,64,18763,1,8
408,152,18957,1,0
320,160,19150,1,0
396,320,19537,6,0,B|292:308|292:308|224:332,1,160,8|0
256,240,20118,2,0,B|176:276,2,80,0|8|0
127,220,20699,2,0,B|200:188,1,80
128,136,21086,2,0,B|164:104|200:92|252:104|272:144,1,160,8|0
312,212,21666,2,0,B|384:179,1,80,0|8
340,104,22053,1,0
312,212,22247,6,0,B|292:304|292:304|224:352,1,160,0|8
104,228,23021,2,0,B|32:284,1,80
152,204,23408,2,0,B|117:288,1,80,8|0
184,160,23795,6,0,B|196:250,1,80,4|0
372,108,24376,2,0,B|359:17,1,80,4|0
432,80,24763,6,0,B|421:159,1,80,4|0
372,108,25150,2,0,B|360:200|360:200|304:244,1,160,4|0
218,206,25731,2,0,B|280:156,1,80
200,124,26118,6,0,B|159:157|115:114|97:68|131:40,1,160,0|8
36,188,26892,2,0,B|72:216|72:216|88:280,1,80
136,180,27279,2,0,B|152:260,1,80,8|0
172,344,27666,2,0,B|212:328|212:328|232:288,1,80
288,360,28053,2,0,B|320:276,2,80,8|0|0
288,360,28634,5,0
376,368,28828,1,8
440,308,29021,1,0
412,224,29215,2,0,B|384:176|296:176|272:232,1,160,0|8
344,276,29795,6,0,B|276:320,1,80
276,224,30182,1,0
276,224,30376,2,0,B|208:268,1,80,8|0
208,172,30763,2,0,B|140:216,2,80,0|0|8
196,84,31344,2,0,B|236:128|304:92|300:32|268:12,1,160
364,4,31924,2,0,B|384:84,1,80,8|0
404,168,32311,6,0,B|420:224|420:224|348:304,1,160,0|8
176,280,33086,2,0,B|230:221,1,80
220,352,33473,2,0,B|274:293,2,80,8|0|0
220,352,34053,1,0
132,352,34247,1,8
44,352,34440,6,0,B|-24:288,1,80
96,160,35021,1,8
132,80,35215,1,0
180,152,35408,1,0
96,160,35602,1,0
161,86,35795,6,0,B|204:72|204:72|250:89,1,80,8|0
160,172,36182,2,0,B|174:216|174:216|157:262,1,80
86,132,36569,2,0,B|43:146|43:146|-3:129,1,80,8|0
184,118,36957,5,0
120,179,37150,1,0
103,94,37344,1,0
228,276,37731,6,0,B|304:208|304:208|384:232,1,160,12|0
344,140,38311,1,0
344,140,38505,2,0,B|420:172,1,80
473,119,38892,1,0
360,224,39279,5,8
276,200,39666,1,0
260,112,40053,1,8
328,56,40440,1,0
168,208,40828,6,0,B|132:112|132:112|40:88,1,160,8|0
72,184,41408,1,0
72,184,41602,2,0,B|-16:156,1,80
68,268,41989,1,0
76,97,42376,5,8
152,140,42763,1,0
240,124,43150,1,8
292,52,43537,1,0
296,272,43924,6,0,B|344:184|344:184|420:144,1,160,12|0
404,244,44505,1,0
404,244,44699,2,0,B|472:200,1,80
412,332,45086,1,0
396,156,45473,5,8
344,84,45860,1,0
256,84,46247,1,8
204,156,46634,1,0
260,368,47021,6,0,B|180:300|180:300|116:312,1,160,8|0
144,224,47602,1,0
144,224,47795,2,0,B|40:248,1,80
6,173,48182,1,0
66,241,48376,1,0
124,308,48569,6,0,B|228:284,1,80,0|0
288,264,48957,1,8
288,264,49150,1,8
384,160,49344,6,0,B|280:184,1,80,0|0
220,204,49732,1,8
220,204,49925,1,8
104,180,50118,6,0,B|148:120|148:120|248:100,1,160,0|8
172,36,50699,1,0
172,36,50892,2,0,B|256:24,1,80
312,92,51279,2,0,B|228:104,1,80,8|0
212,183,51666,5,0
212,183,51860,1,0
172,260,52053,2,0,B|128:344,1,80,8|0
224,332,52440,1,8
172,260,52634,1,8
136,332,52828,1,8
224,332,53021,1,8
312,332,53215,6,0,B|364:248|364:248|448:224,1,160,4|8
424,320,53795,2,0,B|504:292,1,80
348,168,54376,2,0,B|268:196,2,80,8|0|0
348,168,55150,1,8
240,28,55537,1,8
188,100,55731,1,8
100,104,55924,1,8
48,32,56118,1,8
48,32,56311,6,0,B|8:48|8:48|8:112,1,80,4|0
100,104,56699,2,0,B|100:188,1,80,8|0
184,208,57086,2,0,B|184:280|184:280|144:296,1,80
116,348,57473,6,0,B|156:268|264:308,1,160,8|0
428,272,58247,2,0,B|408:320|352:320,1,80,8|0
288,316,58634,2,8,B|329:328|381:316,1,80
340,236,59021,2,8,B|300:152,1,80
305,163,59408,1,4
112,64,59795,6,0,B|148:136|148:136|112:236,1,160,8|0
32,216,60376,2,0,B|60:140,1,80
208,200,60957,2,0,B|236:124,1,80,8|0
384,184,61537,2,0,B|412:108,1,80,8|0
352,236,61924,2,0,B|324:160,1,80,8|0
368,292,62311,6,0,B|294:258,1,80,8|0
223,314,62699,2,0,B|296:348,2,80,0|8|0
144,280,63279,2,0,B|64:236|64:236|44:152,1,160,8|0
136,176,63860,1,0
136,176,64053,2,0,B|108:88,1,80
175,31,64440,6,0,B|200:108,1,80,8|0
264,48,64828,1,0
264,48,65021,1,0
352,64,65215,1,8
352,64,65408,2,0,B|380:140|380:140|456:184,1,160
372,220,65989,2,0,B|448:260,1,80,8|0
442,349,66376,6,0,B|372:312,1,80
304,364,66763,1,8
372,312,66957,1,0
372,220,67150,5,0
320,148,67344,1,0
232,132,67537,1,8
164,188,67731,1,0
160,272,67924,6,0,B|160:328|224:344,1,80
292,344,68311,2,0,B|288:292|232:272,1,80,8|0
160,272,68699,2,0,B|84:272|84:272|16:204,1,160,0|8
112,196,69279,1,0
112,196,69473,2,0,B|48:132,2,80,0|0|8
144,116,70053,1,0
144,116,70247,6,0,B|80:48,1,80
176,36,70634,2,0,B|240:104,1,80,8|0
292,156,71021,2,0,B|356:224,1,80,0|0
346,214,71408,1,8
244,296,71795,5,0
272,212,71989,1,0
188,188,72182,1,8
160,272,72376,1,0
248,292,72569,5,0
309,227,72763,1,0
243,170,72956,1,8
183,235,73150,1,0
252,288,73344,5,0
335,254,73538,1,0
299,175,73731,1,8
218,209,73925,1,0
256,284,74118,5,0
346,288,74312,1,0
347,202,74505,1,8
259,198,74699,1,0
243,100,74892,6,0,B|180:180|180:180|88:196,1,160,12|0
176,260,75473,1,0
176,260,75666,2,0,B|76:276,1,80
70,356,76053,1,0
120,192,76440,5,8
184,132,76828,1,0
272,148,77215,1,8
308,228,77602,1,0
428,44,77989,6,0,B|400:148|400:148|440:212,1,160,8|0
340,212,78569,1,0
340,212,78763,2,0,B|388:276,1,80
332,344,79150,1,0
428,192,79537,5,8
364,132,79924,1,0
280,152,80311,1,8
260,240,80699,1,0
72,352,81086,6,0,B|104:256|104:256|84:176,1,160,12|0
176,204,81666,1,0
176,204,81860,2,0,B|148:116,1,80
220,68,82247,1,0
88,200,82634,5,8
128,280,83021,1,0
216,280,83408,1,8
260,204,83795,1,0
436,332,84182,6,0,B|416:224|416:224|444:156,1,160,8|0
348,188,84763,1,0
348,188,84957,2,0,B|388:112,1,80
337,57,85344,1,0
436,180,85731,6,0,B|404:252,1,80,0|0
364,332,86118,1,8
364,332,86311,1,8
240,336,86505,6,0,B|272:264,1,80
312,184,86892,1,8
312,184,87085,1,8
256,80,87279,5,0
68,112,99666,6,0,B|92:176|92:176|64:280,1,160,0|0
44,340,100247,1,0
124,340,100440,2,0,B|148:264,1,80
200,200,100828,2,0,B|176:123,1,80,0|0
200,200,101215,2,0,B|252:164|328:188|340:252,2,160
200,200,102182,1,0
120,184,102376,1,0
264,116,102763,6,0,B|300:184|300:184|384:224,1,160
380,132,103344,1,0
380,132,103537,2,0,B|448:172,1,80
508,104,103924,1,0
376,220,104311,1,0
204,192,104699,1,0
204,192,104892,2,0,B|116:172,1,80
40,152,105279,2,0,B|12:80|12:80|68:12,1,160
108,92,105860,5,0
44,304,106247,1,0
252,236,106634,2,0,B|160:220|160:220|84:272,1,160
176,308,107215,1,0
176,308,107408,2,0,B|104:348,2,80
108,256,107989,2,0,B|96:188|96:188|168:120,1,160
232,72,108569,1,0
416,192,108957,5,0
416,192,109150,1,8
256,344,109537,5,0
256,344,109731,1,8
96,192,110118,5,0
96,192,110311,1,8
256,192,110505,12,4,112053
256,88,116892,6,8,B|256:192,5,80
256,256,118247,6,0,B|312:256|312:256|360:352,1,160,12|0
400,272,118828,1,0
400,272,119021,2,0,B|436:348,1,80
508,340,119408,1,0
360,348,119795,5,8
288,296,120182,1,0
200,284,120569,1,8
116,316,120957,1,0
44,108,121344,6,0,B|124:56|124:56|196:72,1,160,8|0
140,144,121924,1,0
140,144,122118,2,0,B|232:160,1,80
250,245,122505,1,0
188,68,122892,5,8
220,156,123279,1,0
308,168,123666,1,8
392,140,124053,1,0
392,360,124440,6,0,B|332:276|332:276|272:256,1,160,12|0
276,348,125021,1,0
276,348,125215,2,0,B|192:304,1,80
136,360,125602,1,0
280,256,125989,5,8
312,176,126376,1,0
396,144,126763,1,8
484,156,127150,1,0
288,56,127537,6,0,B|204:96|204:96|136:88,1,160,8|0
168,172,128118,1,0
168,172,128311,2,0,B|76:156,1,80
40,232,128699,1,0
136,88,129086,6,0,B|228:104,1,80
300,120,129473,1,8
300,120,129666,1,8
424,184,129860,6,0,B|332:200,1,80
260,216,130247,1,8
260,216,130440,1,8
144,280,130634,6,0,B|176:320|176:320|288:328,1,160,8|0
372,328,131215,2,0,B|464:332,2,80
324,256,131795,1,8
324,256,131989,1,0
324,256,132182,1,0
324,256,132569,6,0,B|384:232|384:232|440:144,1,160,8|0
296,40,133344,2,0,B|236:64|236:64|180:152,1,160,8|0
136,216,133924,1,0
136,216,134118,2,0,B|84:292,1,80,8|0
348,224,134892,1,8
348,224,135086,2,0,B|248:276|248:276|212:328,2,160
428,192,136053,5,8
348,36,136440,1,0
188,112,136828,2,0,B|60:128|60:128|12:112,1,160,8|0
60,200,137408,1,0
60,200,137602,2,0,B|144:188,1,80,8|0
116,272,137989,1,0
116,272,138182,2,0,B|200:260,2,80,0|8|0
164,344,138763,5,0
268,200,139150,1,8
392,324,139537,2,0,B|464:248|464:248|472:176,1,160,0|8
384,212,140118,1,0
384,212,140311,2,0,B|396:120,1,80
312,160,140699,1,8
312,160,140892,2,0,B|324:68,1,80
256,192,141279,12,4,143021
