osu file format v5

[General]
AudioFilename: IN THE SHADOWS - THE RASMUS.mp3
AudioLeadIn: 0
PreviewTime: -1
Countdown: 1
SampleSet: Soft

[Metadata]
Title:In The Shadows
Artist:The Rasmus
Creator:JC FirE
Version:Normal

[Difficulty]
HPDrainRate:3
CircleSize:5
OverallDifficulty:5
SliderMultiplier:1.4
SliderTickRate:1

[Events]
//Background and Video events
0,0,"shadows-bg.jpg"
//Break Periods
//Storyboard Layer 0 (Background)
//Storyboard Layer 1 (Failing)
//Storyboard Layer 2 (Passing)
//Storyboard Layer 3 (Foreground)
//Storyboard Sound Samples
//Background Colour Transformations
3,100,163,162,255

[TimingPoints]
262,566.237735849057,4,2,1,100

[Colours]
Combo1 : 255,255,0
Combo2 : 128,0,0
Combo3 : 255,0,0
Combo4 : 255,128,0

[HitObjects]
48,80,9888,1,0
96,80,10171,1,0
144,80,10454,1,0
336,80,11020,1,0
336,80,11303,1,0
336,80,11586,1,0
464,288,12152,5,0
416,288,12436,1,0
368,288,12719,1,0
160,288,13285,1,0
160,288,13568,1,0
160,288,13851,1,0
256,176,14417,5,0
256,176,14984,1,0
256,176,15550,1,0
256,176,16116,1,0
256,176,16682,5,0
256,176,16966,1,0
256,176,17249,1,0
256,176,17532,1,0
256,176,17815,1,0
256,176,18098,1,0
256,176,18381,1,0
96,256,18947,5,0
96,208,19230,1,0
96,160,19514,1,0
256,192,20080,5,2
288,160,20504,1,2
320,128,20929,1,2
352,160,21212,5,0
384,192,21495,1,0
416,224,21779,1,0
448,192,22345,1,0
480,160,22628,1,0
512,128,22911,1,0
480,96,23477,5,0
448,64,23760,1,0
416,32,24043,1,0
384,64,24610,1,0
352,96,24893,1,0
320,128,25176,1,0
320,128,25742,5,0
352,96,26025,1,0
384,64,26308,1,0
256,192,26875,5,4
224,192,27299,1,4
192,192,27724,1,4
192,160,28007,6,2,L|192:48,1,105
96,160,29140,2,2,L|208:160,1,105
96,272,30272,2,2,L|96:160,1,105
256,352,31405,5,0
256,304,31688,1,0
256,256,31971,1,0
256,208,32254,1,0
256,160,32537,1,0
320,160,33103,1,0
320,112,33386,1,0
384,112,33953,1,0
384,160,34236,1,0
384,208,34519,2,0,L|384:352,1,140
336,352,35934,1,0
336,304,36218,1,0
336,256,36501,1,0
320,160,37067,6,2,L|320:48,1,105
416,160,38200,2,2,L|304:160,1,105
416,272,39332,2,2,L|416:160,1,105
256,352,40465,5,0
256,304,40748,1,0
256,256,41031,1,0
256,208,41314,1,0
256,160,41597,1,0
192,160,42163,1,0
192,208,42729,1,0
144,208,43012,1,0
144,160,43579,1,0
256,192,44145,5,4
256,192,44570,1,4
256,192,44994,1,4
320,272,46127,5,2
336,256,46410,1,2
352,240,46693,1,2
368,224,46976,1,2
384,192,47259,1,2
400,160,47542,1,2
400,128,47825,1,2
384,96,48109,1,2
368,64,48392,1,2
352,48,48675,1,2
320,32,48958,1,2
288,32,49241,1,2
256,32,49524,1,2
240,48,49807,1,2
224,64,50090,1,2
208,80,50374,1,2
192,96,50657,5,2
160,96,50940,1,2
128,96,51223,1,2
112,112,51506,1,2
96,128,51789,1,2
96,160,52072,1,2
96,192,52355,1,2
112,208,52638,1,2
128,224,52922,1,2
160,240,53205,1,2
192,240,53488,1,2
208,224,53771,1,2
256,192,54054,1,6
256,192,54620,5,4
224,144,55187,5,2
192,128,55470,1,2
160,128,55753,1,2
128,144,56036,1,2
112,176,56319,1,2
96,208,56602,1,2
64,224,56885,1,2
32,208,57168,1,2
32,160,57452,1,2
48,128,57735,1,2
80,112,58018,1,2
112,128,58301,1,2
128,160,58584,1,2
144,192,58867,1,2
160,224,59150,1,2
176,256,59433,1,2
224,272,59716,5,2
272,240,60000,1,2
224,224,60283,1,2
272,192,60566,1,2
224,176,60849,1,2
272,144,61132,1,2
224,128,61415,1,2
272,96,61698,1,2
224,80,61981,1,2
272,48,62265,1,2
320,64,62548,1,2
272,96,62831,1,2
320,112,63114,5,4
320,112,63255,1,4
320,112,63397,1,4
368,112,63680,1,4
368,112,63822,1,4
368,112,63963,1,4
368,160,64246,5,0
256,160,64813,1,0
192,160,65237,1,0
192,112,65662,1,0
256,112,65945,1,0
320,112,66228,1,0
368,112,66511,5,0
368,208,67078,1,0
368,272,67502,1,0
320,272,67927,1,0
320,208,68210,1,0
320,144,68493,1,0
256,144,68776,5,0
128,144,69343,1,0
192,144,69767,1,0
192,96,70050,1,0
192,96,70192,1,0
240,96,70475,1,0
240,48,70758,1,0
192,48,71041,1,0
96,48,71607,5,0
64,96,72032,1,0
128,96,72315,1,0
128,96,72457,1,0
128,144,72740,1,0
64,144,73023,1,0
64,208,73306,5,0
128,224,73872,1,0
192,224,74297,1,0
192,272,74722,1,0
256,272,75005,1,0
320,272,75288,1,0
368,272,75571,5,0
368,176,76138,1,0
368,112,76562,1,0
320,112,76987,1,0
320,176,77270,1,0
320,240,77553,1,0
256,240,77836,5,0
128,240,78403,1,0
192,240,78827,1,0
192,288,79110,1,0
192,288,79252,1,0
240,288,79535,1,0
240,336,79818,1,0
192,336,80101,2,0,L|112:336,7,70
256,192,82366,12,0,86330
