osu file format v5

[General]
AudioFilename: IN THE SHADOWS - THE RASMUS.mp3
AudioLeadIn: 0
PreviewTime: -1
Countdown: 1
SampleSet: Soft

[Metadata]
Title:In The Shadows
Artist:The Rasmus
Creator:JC FirE
Version:Easy

[Difficulty]
HPDrainRate:5
CircleSize:4
OverallDifficulty:5
SliderMultiplier:1.4
SliderTickRate:1

[Events]
//Background and Video events
0,0,"shadows-bg.jpg"
//Break Periods
//Storyboard Layer 0 (Background)
//Storyboard Layer 1 (Failing)
//Storyboard Layer 2 (Passing)
//Storyboard Layer 3 (Foreground)
//Storyboard Sound Samples
//Background Colour Transformations
3,100,163,162,255

[TimingPoints]
262,566.237735849057,4,2,1,100

[Colours]
Combo1 : 255,255,0
Combo2 : 128,0,0
Combo3 : 255,0,0
Combo4 : 255,128,0

[HitObjects]
64,80,9888,2,0,L|208:80,1,140
208,144,11020,2,0,L|368:144,1,140
416,144,12152,2,0,L|416:288,1,140
416,336,13285,2,0,L|272:336,1,140
272,272,14417,2,0,L|272:128,1,140
272,64,15550,2,0,L|128:64,1,140
80,64,16682,2,0,L|80:224,1,140
128,208,17815,5,4
128,208,18381,1,4
192,208,18947,6,0,L|304:112,1,140
336,160,20080,2,0,L|224:272,1,140
288,304,21212,2,0,L|400:192,1,140
432,256,22345,2,0,L|336:368,1,140
288,320,23477,2,0,L|192:208,1,140
240,176,24610,2,0,L|352:272,1,140
384,208,25742,2,0,L|288:96,1,140
224,96,26875,5,4
224,96,27299,1,4
224,96,27724,1,4
96,128,28290,5,2
96,128,28573,1,2
208,192,29423,1,2
208,192,29706,1,2
336,256,30555,1,2
336,256,30838,1,2
416,112,31688,1,2
416,112,31971,1,2
336,112,32537,5,2
256,112,33103,1,2
176,112,33670,1,2
80,112,34236,1,2
80,176,34802,1,2
176,176,35368,1,2
256,176,35934,1,2
368,176,36501,1,2
304,272,37350,5,2
304,272,37633,1,2
112,224,38483,1,2
112,224,38766,1,2
240,128,39615,1,2
240,128,39898,1,2
368,208,40747,1,2
368,208,41031,1,2
208,208,41880,1,2
208,208,42163,1,2
64,144,43012,1,2
64,144,43296,1,2
224,128,44145,5,4
224,128,44570,1,4
224,128,44995,1,4
496,32,46127,5,0
496,32,46410,1,0
496,32,46693,1,0
496,112,47259,1,0
496,112,47542,1,0
496,112,47825,1,0
496,192,48392,1,0
496,192,48675,1,0
496,192,48958,1,0
496,288,49524,1,0
496,288,49807,1,0
496,288,50090,1,0
432,288,50657,5,0
352,288,51223,1,0
272,288,51789,1,0
192,288,52355,1,0
192,224,52922,1,0
192,144,53488,1,0
192,80,54054,1,0
192,16,54620,1,0
16,16,55187,5,0
16,16,55470,1,0
16,16,55753,1,0
16,96,56319,1,0
16,96,56602,1,0
16,96,56885,1,0
16,176,57452,1,0
16,176,57735,1,0
16,176,58018,1,0
16,256,58584,1,0
16,256,58867,1,0
16,256,59150,1,0
16,336,59716,1,0
16,336,60000,1,0
16,336,60283,1,0
96,336,60849,1,0
96,336,61132,1,0
96,336,61415,1,0
176,336,61981,1,0
176,336,62265,1,0
176,336,62548,1,0
176,336,62831,1,4
176,336,63114,1,0
176,336,63397,1,0
176,336,63680,1,4
48,176,64246,6,4,L|128:176|128:96|256:96|256:240,1,420
464,176,66511,6,4,L|384:176|384:96|256:96|256:240,1,420
48,208,68776,6,4,L|128:208|128:288|256:288|256:144,1,420
464,208,71041,6,4,L|384:208|384:288|256:288|256:144,1,420
496,16,73306,5,2
464,48,73872,1,2
432,80,74439,1,2
400,112,75005,1,2
368,144,75571,1,2
336,176,76137,1,2
304,208,76704,1,2
272,240,77270,1,2
240,272,77836,1,2
208,304,78402,1,2
176,336,78969,1,2
144,368,79535,1,2
112,336,80101,5,4
112,336,80384,1,4
112,336,80667,1,4
112,336,80950,1,4
112,336,81233,1,4
112,336,81517,1,4
112,336,81800,1,4
256,192,82366,12,0,86330
