osu file format v12

[General]
AudioFilename: 02 The Big Black.mp3
AudioLeadIn: 0
PreviewTime: 18957
Countdown: 0
SampleSet: Soft
StackLeniency: 0.7
Mode: 0
LetterboxInBreaks: 0

[Editor]
Bookmarks: 6966,18956,29613,40271,50929,62919,73577,84234,94892,105550,117540,128198,140188
DistanceSpacing: 0.8
BeatDivisor: 4
GridSize: 4

[Metadata]
Title:The Big Black
TitleUnicode:The Big Black
Artist:The Quick Brown Fox
ArtistUnicode:The Quick Brown Fox
Creator:cheesiest
Version:Hard
Source:
Tags:
BeatmapID:203987
BeatmapSetID:71057

[Difficulty]
HPDrainRate:5
CircleSize:3
OverallDifficulty:7
ApproachRate:8
SliderMultiplier:2
SliderTickRate:2

[Events]
//Background and Video events
0,0,"musica--eletronica_6961_1024x768.jpg",0,0
//Break Periods
2,40471,50179
2,84434,94142
//Storyboard Layer 0 (Background)
//Storyboard Layer 1 (Fail)
//Storyboard Layer 2 (Pass)
//Storyboard Layer 3 (Foreground)
//Storyboard Sound Samples
//Background Colour Transformations
3,100,163,162,255

[TimingPoints]
6966,333.055786844296,4,2,0,100,1,0
18956,-100,4,2,0,100,0,1
29530,-100,4,2,0,100,0,0
29613,-100,4,2,0,100,0,1
40271,-100,4,2,0,100,0,0

[Colours]
Combo1 : 249,91,91
Combo2 : 128,255,128
Combo3 : 128,255,255
Combo4 : 255,128,255
Combo5 : 255,255,128

[HitObjects]
96,132,6966,6,0,L|64:92,2,50,4|0|0,0:0|0:0|0:0,0:0:0:0:
196,152,7299,2,0,P|168:212|100:236,1,100,2|0,0:0|0:0,0:0:0:0:
208,304,7632,2,0,P|256:316|304:304,1,100,2|2,0:0|0:0,0:0:0:0:
370,229,7965,2,0,P|344:212|316:152,1,100,2|0,0:0|0:0,0:0:0:0:
416,132,8298,6,0,L|448:92,2,50,4|0|0,0:0|0:0|0:0,0:0:0:0:
496,192,8631,2,0,P|488:248|452:280,1,100,2|0,0:0|0:0,0:0:0:0:
380,292,8964,2,0,P|388:236|424:204,1,100,2|2,0:0|0:0,0:0:0:0:
416,132,9297,2,0,P|360:124|328:88,1,100,2|0,0:0|0:0,0:0:0:0:
256,64,9630,6,0,L|256:116,2,50,4|0|0,0:0|0:0|0:0,0:0:0:0:
180,94,9963,2,0,P|152:124|96:132,1,100,2|0,0:0|0:0,0:0:0:0:
94,207,10296,2,0,P|124:236|132:292,1,100,2|2,0:0|0:0,0:0:0:0:
53,276,10629,2,0,P|24:248|16:192,1,100,2|0,0:0|0:0,0:0:0:0:
96,132,10962,6,0,L|84:84,2,50,4|0|0,0:0|0:0|0:0,0:0:0:0:
192,96,11295,2,0,L|191:46,2,50,2|0|0,0:0|0:0|0:0,0:0:0:0:
320,96,11628,2,0,L|320:46,2,50,2|0|0,0:0|0:0|0:0,0:0:0:0:
416,132,11961,2,0,L|428:84,2,50,2|0|0,0:0|0:0|0:0,0:0:0:0:
428,232,12294,6,0,P|336:300|256:292,1,200,6|2,1:2|1:2,0:0:0:0:
256,92,12961,2,0,P|292:148|268:204,1,100,2|2,0:0|0:0,0:0:0:0:
240,244,13294,2,0,P|204:188|228:132,1,100,2|0,0:0|0:0,0:0:0:0:
84,152,13627,6,0,P|176:84|256:92,1,200,4|2,0:0|0:0,0:0:0:0:
256,292,14294,2,0,P|220:236|244:180,1,100,2|2,0:0|0:0,0:0:0:0:
272,140,14627,2,0,P|308:196|284:252,1,100,2|0,0:0|0:0,0:0:0:0:
256,292,14959,6,0,L|256:344,2,50,4|0|0,1:2|0:0|0:0,0:0:0:0:
172,236,15292,2,0,P|152:192|172:148,1,100,2|0,0:0|0:0,0:0:0:0:
256,92,15625,2,0,L|256:40,2,50,2|0|2,1:2|0:0|0:0,0:0:0:0:
340,148,15958,2,0,P|360:192|340:236,1,100,2|0,0:0|0:0,0:0:0:0:
256,292,16291,6,0,L|256:344,2,50,4|0|0,1:2|0:0|0:0,0:0:0:0:
169,242,16624,2,0,L|124:268,2,50,2|0|0,1:2|0:0|0:0,0:0:0:0:
169,142,16957,2,0,L|124:116,2,50,2|0|2,1:2|0:0|0:0,0:0:0:0:
256,92,17290,2,0,L|256:40,2,50,2|0|0,1:2|0:0|0:0,0:0:0:0:
256,192,17623,5,4,1:0:0:0:
256,192,18289,1,0,1:0:0:0:
256,192,18622,1,0,1:0:0:0:
256,192,18706,1,0,1:0:0:0:
256,192,18789,1,0,1:0:0:0:
343,142,18956,6,0,P|368:104|416:80,1,100,2|0,1:2|0:0,0:0:0:0:
488,148,19289,2,0,P|508:192|488:236,1,100,2|0,0:0|0:0,0:0:0:0:
416,304,19622,2,0,P|368:280|343:242,1,100,2|0,0:0|0:0,0:0:0:0:
256,292,19955,2,0,L|256:192,1,100,14|8,0:0|0:0,0:0:0:0:
169,242,20288,6,0,P|144:280|96:304,1,100,2|0,1:2|0:0,0:0:0:0:
24,236,20621,2,0,P|4:192|24:148,1,100,2|0,0:0|0:0,0:0:0:0:
96,80,20954,2,0,P|144:104|169:142,1,100,2|0,0:0|0:0,0:0:0:0:
256,92,21287,2,0,L|256:192,1,100,12|0,0:0|0:0,0:0:0:0:
343,142,21620,6,0,B|343:178|359:206|395:218|395:218|359:230|343:258|343:298,1,200,2|2,1:2|0:0,0:0:0:0:
444,296,22120,1,0,0:0:0:0:
496,220,22286,1,2,0:0:0:0:
440,144,22453,1,0,0:0:0:0:
343,142,22619,1,10,0:0:0:0:
256,192,22786,1,8,0:0:0:0:
169,142,22952,6,0,B|169:178|153:206|117:218|117:218|153:230|169:258|169:298,1,200,2|2,1:2|0:0,0:0:0:0:
68,296,23452,1,8,0:0:0:0:
16,220,23618,1,10,0:0:0:0:
72,144,23785,1,8,0:0:0:0:
169,142,23951,1,2,0:0:0:0:
256,192,24118,1,0,0:0:0:0:
256,292,24284,6,0,L|256:344,2,50,2|0|0,1:2|0:0|0:0,0:0:0:0:
343,242,24617,2,0,L|388:268,2,50,2|0|0,0:0|0:0|0:0,0:0:0:0:
343,142,24951,2,8,L|388:116,2,50,10|8|8,0:0|0:0|0:0,0:0:0:0:
256,92,25283,2,0,L|256:40,2,50,14|8|8,0:0|0:0|0:0,0:0:0:0:
156,96,25617,6,0,P|92:72|64:80,1,100,2|0,1:2|0:0,0:0:0:0:
8,136,25950,2,0,P|72:160|100:152,1,100,2|0,0:0|0:0,0:0:0:0:
172,188,26283,2,0,P|160:248|172:284,1,100,10|0,0:0|0:0,0:0:0:0:
208,356,26616,2,0,P|268:368|304:356,1,100,14|0,0:0|0:0,0:0:0:0:
356,288,26949,6,0,P|420:312|448:304,1,100,2|0,1:2|0:0,0:0:0:0:
504,248,27282,2,0,P|440:224|412:232,1,100,2|0,0:0|0:0,0:0:0:0:
340,196,27615,2,0,P|352:136|340:100,1,100,2|0,0:0|0:0,0:0:0:0:
304,28,27948,2,0,P|244:16|208:28,1,100,14|0,0:0|0:0,0:0:0:0:
208,108,28281,6,0,P|260:120|304:108,1,100,0|0,1:2|0:0,0:0:0:0:
350,172,28614,2,0,P|265:200|162:172,1,200
256,44,29280,1,4,0:0:0:0:
100,80,29613,6,0,L|64:116,2,50,0|0|0,1:0|0:0|0:0,0:0:0:0:
66,223,29946,2,0,L|66:274,2,50
144,348,30279,2,0,L|180:384,2,50
287,381,30612,2,0,L|338:381,2,50,4|0|0,0:0|0:0|0:0,0:0:0:0:
412,304,30946,6,0,L|448:268,2,50,0|0|0,1:0|0:0|0:0,0:0:0:0:
445,160,31279,2,0,L|445:109,2,50
368,36,31612,2,0,L|332:0,2,50
224,2,31945,2,0,L|173:2,2,50,4|4|0,0:0|0:0|0:0,0:0:0:0:
212,80,32278,6,0,P|160:124|160:268,1,200,0|0,1:0|0:0,0:0:0:0:
300,304,32944,2,0,P|352:260|352:116,1,200,0|0,0:0|0:0,0:0:0:0:
288,106,33443,1,0,0:1:0:0:
212,80,33610,6,0,P|168:132|170:160,1,100,0|0,1:0|0:0,0:0:0:0:
144,236,33943,2,0,P|196:280|224:278,1,100
300,304,34276,2,0,P|344:252|342:224,1,100
368,148,34609,2,0,P|316:104|288:106,1,100,0|0,0:0|0:0,0:0:0:0:
212,80,34942,6,0,P|248:36|304:28,1,100
368,148,35275,2,0,P|412:184|420:240,1,100
300,304,35608,2,0,P|264:348|208:356,1,100
144,236,35941,2,0,P|100:200|92:144,1,100,4|0,0:0|0:0,0:0:0:0:
176,152,36274,6,0,P|166:111|122:75,1,100
148,0,36607,1,0,0:0:0:0:
216,40,36774,1,0,0:0:0:0:
296,40,36941,1,0,0:0:0:0:
364,0,37108,1,0,0:0:0:0:
389,75,37274,2,0,P|345:111|336:152,1,100
336,232,37607,6,0,P|345:272|389:308,1,100
364,384,37940,1,0,0:0:0:0:
296,344,38107,1,0,0:0:0:0:
216,344,38274,1,0,0:0:0:0:
148,384,38441,1,0,0:0:0:0:
122,308,38607,2,0,P|166:272|176:232,1,100
176,152,38939,2,0,P|236:108|264:108,1,100
330,142,39272,2,0,P|338:216|324:240,1,100
261,281,39605,2,0,P|193:251|179:227,1,100
256,192,39938,1,4,0:0:0:0:
256,192,40271,5,0,1:0:0:0:
216,28,50929,5,0,0:0:0:0:
136,32,51095,2,0,P|180:100|194:105,1,100
256,152,51428,1,0,0:0:0:0:
256,232,51595,1,0,0:0:0:0:
194,278,51762,2,0,P|180:284|136:352,1,100
216,356,52094,1,0,0:0:0:0:
296,356,52261,5,0,0:0:0:0:
376,352,52427,2,0,P|332:284|317:278,1,100
256,232,52760,1,0,0:0:0:0:
256,152,52927,1,0,0:0:0:0:
317,105,53094,2,0,P|332:100|376:32,1,100
296,28,53426,1,0,0:0:0:0:
216,28,53593,6,0,P|144:32|100:80,1,100
76,112,53926,1,0,0:0:0:0:
76,192,54093,1,0,0:0:0:0:
40,264,54259,2,0,P|112:264|156:212,1,100
208,220,54592,2,0,P|268:248|280:276,1,100
296,356,54926,6,0,P|368:352|412:304,1,100
436,272,55259,1,0,0:0:0:0:
436,192,55426,1,0,0:0:0:0:
472,120,55592,2,0,P|400:120|356:172,1,100
304,164,55925,2,0,P|244:136|232:108,1,100
156,80,56258,6,0,L|124:40,2,50
124,152,56591,2,0,P|88:212|84:240,1,100
144,292,56924,2,0,L|104:324,2,50
216,324,57257,2,0,P|276:360|304:364,1,100
356,304,57590,6,0,L|388:344,2,50
388,232,57923,2,0,P|424:172|428:144,1,100
368,92,58256,2,0,L|408:60,2,50
296,60,58589,2,0,P|236:24|208:20,1,100
132,44,58922,6,0,L|32:44,1,100
56,120,59255,2,0,L|156:120,1,100
184,196,59588,2,0,L|84:196,1,100
116,272,59921,2,0,L|216:272,1,100
296,272,60254,6,0,L|396:272,1,100
428,196,60587,2,0,L|328:196,1,100
356,120,60920,2,0,L|456:120,1,100
480,44,61253,2,0,L|380:44,1,100
300,40,61587,5,0,0:0:0:0:
212,344,62253,1,0,0:0:0:0:
256,192,62586,1,0,0:0:0:0:
256,192,62669,1,0,0:0:0:0:
256,192,62752,1,0,0:0:0:0:
176,192,62919,6,0,L|124:192,2,50
184,112,63252,2,0,L|148:76,2,50
256,80,63585,2,0,L|256:28,2,50
328,112,63918,2,0,L|364:76,2,50
336,192,64251,6,0,L|388:192,2,50
328,272,64584,2,0,L|364:308,2,50
256,304,64917,2,0,L|256:356,2,50
184,272,65250,2,0,L|148:308,2,50
184,192,65583,6,0,P|188:140|228:96,1,100
292,129,65916,2,0,P|335:159|353:215,1,100
292,254,66249,2,0,P|244:276|186:264,1,100
120,288,66582,2,8,L|116:312,4,25
88,212,66916,6,0,P|84:164|132:104,1,100
164,180,67249,2,0,P|212:176|272:224,1,100
196,256,67582,2,0,P|200:304|152:364,1,100
120,288,67915,2,0,P|72:292|12:244,1,100
12,188,68248,6,0,P|56:128|80:112,1,100
132,56,68581,2,0,P|204:104|228:104,1,100
297,104,68914,2,0,P|308:104|380:56,1,100
435,114,69247,2,0,P|456:128|500:188,1,100
452,252,69580,6,0,P|416:296|375:301,1,100
372,220,69913,2,0,P|331:225|295:269,1,100
216,269,70246,2,0,P|180:225|140:220,1,100
137,301,70579,2,0,P|96:296|60:252,1,100
64,176,70912,6,0,L|44:156,6,25
92,148,71245,2,0,L|77:123,6,25
128,128,71578,2,0,L|120:100,6,25
168,116,71911,2,0,L|168:87,6,25
208,112,72244,6,0,P|264:108|324:128,1,100
380,152,72577,1,0,0:0:0:0:
460,152,72744,1,0,0:0:0:0:
460,232,72911,1,0,0:0:0:0:
380,232,73078,1,0,0:0:0:0:
305,264,73244,1,0,0:0:0:0:
140,296,73577,6,0,P|90:310|46:296,1,100
93,232,73910,1,0,0:0:0:0:
93,152,74076,1,0,0:0:0:0:
46,88,74243,2,0,P|90:74|140:88,1,100
208,44,74576,2,0,P|256:32|304:44,1,100
372,88,74909,6,0,P|422:74|466:88,1,100
419,152,75242,1,0,0:0:0:0:
419,232,75408,1,0,0:0:0:0:
466,296,75575,2,0,P|422:310|372:296,1,100
304,340,75908,2,0,P|256:352|208:340,1,100
152,284,76241,6,0,P|236:148|360:284,1,400
304,340,77074,1,0,0:0:0:0:
208,340,77240,1,0,0:0:0:0:
136,196,77573,6,0,P|160:132|208:116,1,100
216,192,77906,1,0,0:0:0:0:
296,192,78073,1,0,0:0:0:0:
376,196,78239,2,0,P|352:132|326:118,1,100
256,80,78572,1,0,0:0:0:0:
96,68,78906,6,0,P|56:112|52:152,1,100
52,192,79155,2,0,L|0:192,2,50
51,233,79405,2,0,P|56:272|96:316,1,100
176,328,79738,1,0,0:0:0:0:
256,316,79905,1,0,0:0:0:0:
336,328,80071,1,0,0:0:0:0:
416,316,80238,6,0,P|456:272|460:232,1,100
460,192,80488,2,0,L|512:192,2,50
460,150,80738,2,0,P|456:112|416:68,1,100
336,56,81070,1,0,0:0:0:0:
256,68,81237,1,0,0:0:0:0:
176,56,81403,1,0,0:0:0:0:
256,192,81570,12,6,84234,1:2:0:0:
104,96,94892,6,0,L|80:40,2,50
40,144,95225,2,0,P|36:220|56:268,1,100
92,308,95558,2,0,P|144:352|176:356,1,100
248,328,95891,2,0,P|332:328|356:348,1,100
408,288,96224,6,0,L|432:344,2,50
472,240,96557,2,0,P|476:164|456:116,1,100
420,76,96890,2,0,P|368:32|336:28,1,100
264,56,97223,2,0,P|180:56|156:36,1,100
88,56,97557,6,0,P|36:116|36:136,1,100
116,131,97890,2,0,P|116:148|64:208,1,100
64,288,98223,2,0,P|124:340|144:340,1,100
139,259,98556,2,0,P|155:259|215:311,1,100
296,311,98889,6,0,P|356:259|373:259,1,100
371,340,99222,2,0,P|388:340|448:288,1,100
448,208,99555,2,0,P|396:148|395:131,1,100
476,132,99888,2,0,P|476:116|424:56,1,100
344,56,100221,6,0,L|332:8,2,50
316,132,100554,2,0,P|320:184|284:228,1,100
216,236,100887,2,0,L|228:284,2,50
244,160,101220,2,0,P|240:108|276:64,1,100
344,56,101553,6,0,P|408:60|440:88,1,100
484,144,101886,2,0,P|492:168|484:240,1,100
434,303,102219,2,0,P|408:324|344:328,1,100
304,256,102553,2,0,P|232:248|208:256,1,100
168,328,102886,6,0,P|104:324|72:296,1,100
28,240,103219,2,0,P|20:216|28:144,1,100
77,80,103552,2,0,P|104:60|168:56,1,100
208,128,103886,2,0,P|280:136|304:128,1,100
380,108,104218,6,0,P|444:116|472:152,1,100
400,184,104551,2,0,P|392:248|356:276,1,100
324,204,104884,2,0,P|260:196|232:160,1,100
304,128,105217,2,0,P|312:64|348:36,1,100
380,108,105550,6,0,L|428:88,2,50
400,184,105883,2,0,P|392:248|356:276,1,100
300,312,106216,1,0,0:0:0:0:
212,312,106383,1,0,0:0:0:0:
144,270,106549,2,0,P|120:248|112:184,1,100
132,108,106882,6,0,L|84:88,2,50
209,87,107215,2,0,P|253:72|302:88,1,100
336,112,107465,1,0,0:0:0:0:
360,145,107548,2,0,P|376:189|360:238,1,100
336,272,107798,1,0,0:0:0:0:
302,296,107881,2,0,P|259:312|210:296,1,100
132,276,108214,6,0,L|84:296,2,50
96,204,108548,1,0,0:0:0:0:
132,132,108714,2,0,L|88:108,2,50
204,100,109047,1,0,0:0:0:0:
276,136,109214,2,0,P|304:180|304:228,1,100
256,292,109547,6,0,L|256:344,2,50,4|0|0,1:2|0:0|0:0,0:0:0:0:
169,242,109880,2,0,L|124:268,2,50,2|0|0,1:2|0:0|0:0,0:0:0:0:
169,142,110213,2,0,L|124:116,2,50,2|0|2,1:2|0:0|0:0,0:0:0:0:
256,92,110546,2,0,L|256:40,2,50,2|0|0,1:2|0:0|0:0,0:0:0:0:
343,142,110879,6,0,L|388:116,2,50,2|0|2,1:2|0:0|0:0,0:0:0:0:
345,239,111212,2,0,P|358:293|392:320,1,100
424,248,111545,2,0,P|464:209|470:164,1,100
392,176,111878,2,0,P|338:160|296:177,1,100
256,108,112211,6,0,L|256:56,2,50
213,175,112544,2,0,P|173:160|120:176,1,100
41,167,112877,2,0,P|47:209|88:248,1,100
120,320,113210,2,0,P|153:293|166:239,1,100
213,175,113543,5,0,0:0:0:0:
484,4,114209,1,0,0:0:0:0:
164,20,114876,5,0,0:0:0:0:
213,175,115209,1,0,0:0:0:0:
372,172,115542,1,0,0:0:0:0:
323,17,115875,1,0,0:0:0:0:
484,4,116208,5,0,0:0:0:0:
213,175,116874,1,0,0:0:0:0:
169,242,117207,6,0,L|124:268,2,50,2|0|2,1:2|0:0|0:0,0:0:0:0:
255,292,117540,6,0,L|255:344,2,50,2|0|2,1:2|0:0|0:0,0:0:0:0:
332,316,117873,2,0,P|335:276|307:225,1,100
280,148,118206,2,0,P|276:60|320:40,1,100
356,44,118539,2,0,L|384:0,2,50
424,88,118872,6,0,L|464:56,2,50
452,164,119205,2,0,P|408:196|348:196,1,100
288,172,119538,2,0,P|244:140|184:140,1,100
220,216,119871,2,0,L|200:236,4,25
256,288,120204,6,0,L|220:324,2,50
332,316,120538,2,0,P|376:336|436:316,1,100
384,256,120871,2,0,P|379:207|331:165,1,100
304,240,121204,2,0,P|264:268|252:330,1,100
180,276,121537,6,0,L|80:276,1,100
52,200,121870,2,0,L|152:200,1,100
128,124,122203,2,0,L|28:124,1,100
0,48,122536,2,0,L|100:48,1,100
180,48,122869,6,0,L|164:0,2,50
260,68,123202,2,0,P|312:88|336:124,1,100
380,192,123535,2,0,L|480:192,1,100
336,260,123868,2,0,P|312:296|260:316,1,100
180,336,124201,6,0,L|164:384,2,50
172,256,124534,2,0,P|120:284|100:336,1,100
116,192,124867,2,0,L|16:192,1,100
172,128,125200,2,0,P|120:100|100:48,1,100
180,48,125533,6,0,L|164:0,2,50
256,80,125866,1,0,0:0:0:0:
332,48,126033,2,0,L|348:0,2,50
302,140,126366,2,0,P|257:156|210:140,2,100
364,192,126866,6,0,L|400:228,2,50
332,268,127199,2,0,L|332:319,2,50
256,300,127532,2,0,L|220:336,2,50
179,268,127865,2,0,L|128:268,2,50
148,192,128198,6,0,L|112:156,2,50
179,115,128531,2,0,L|179:64,2,50
256,84,128864,2,0,L|292:48,2,50
332,115,129197,2,0,L|383:115,2,50
328,196,129530,6,0,P|300:264|320:308,1,100
380,256,129863,2,0,P|448:284|492:264,1,100,0|0,0:0|0:0,0:0:0:0:
440,204,130196,2,0,P|468:136|448:92,1,100
388,144,130529,2,0,P|320:116|276:136,1,100,0|0,0:0|0:0,0:0:0:0:
214,121,130862,6,0,P|192:116|124:144,1,100,0|0,0:0|0:0,0:0:0:0:
49,113,131195,2,0,P|44:136|72:204,1,100
41,278,131528,2,0,P|64:284|132:256,1,100,0|0,0:0|0:0,0:0:0:0:
206,286,131861,2,0,P|212:264|184:196,1,100
216,120,132194,6,0,L|216:20,1,100
292,52,132528,2,0,L|292:152,1,100
368,184,132861,2,0,L|368:84,1,100
444,116,133195,2,0,L|444:216,1,100
424,292,133527,6,0,L|408:340,2,50
348,268,133860,2,0,P|288:272|252:248,1,100
312,196,134193,2,0,P|338:142|377:122,1,100
392,204,134526,2,0,P|425:253|422:297,1,100
348,268,134859,6,0,L|332:316,2,50
272,244,135192,2,0,P|212:248|176:224,1,100
236,172,135525,2,0,P|262:118|301:98,1,100
316,180,135858,2,0,P|349:229|346:273,1,100
272,244,136191,6,0,L|256:292,2,50
196,220,136524,2,0,P|136:224|100:200,1,100
160,148,136857,2,0,P|186:94|225:74,1,100
240,156,137190,2,0,P|273:205|270:249,1,100
196,220,137523,6,0,L|180:268,2,50
120,196,137856,2,0,P|60:200|24:176,1,100
84,124,138189,2,0,P|110:70|149:50,1,100
164,132,138522,2,0,P|197:181|194:225,1,100
256,192,138856,12,0,140188,0:0:0:0:
