osu file format v14

[General]
AudioFilename: The+Quick+Brown+Fox+-+The+Big+Black+(MajorLeagueWobs+Remix).mp3
AudioLeadIn: 0
PreviewTime: -1
Countdown: 1
SampleSet: None
StackLeniency: 0.7
Mode: 0
LetterboxInBreaks: 1
WidescreenStoryboard: 0

[Editor]
DistanceSpacing: 0.5
BeatDivisor: 2
GridSize: 4
TimelineZoom: 2.780002

[Metadata]
Title:The Big Black (MajorLeagueWobs Remix)
TitleUnicode:The Big Black (MajorLeagueWobs Remix)
Artist:The Quick Brown Fox
ArtistUnicode:The Quick Brown Fox
Creator:Br00tal
Version:DAMN SON
Source:
Tags:
BeatmapID:657074
BeatmapSetID:290777

[Difficulty]
HPDrainRate:5
CircleSize:4
OverallDifficulty:7
ApproachRate:10
SliderMultiplier:1.6
SliderTickRate:2

[Events]
//Background and Video events
0,0,"Down The Mainstream Wallpaper 1920x1080.jpg",0,0
//Break Periods
2,24863,29542
2,83481,93489
2,128777,149442
//Storyboard Layer 0 (Background)
//Storyboard Layer 1 (Fail)
//Storyboard Layer 2 (Pass)
//Storyboard Layer 3 (Foreground)
//Storyboard Sound Samples

[TimingPoints]
7345,166.527893422148,4,1,0,100,1,0
171209,166.527893422148,4,1,0,100,1,0

[Colours]
Combo1 : 158,12,129
Combo2 : 100,100,255
Combo3 : 231,28,5
Combo4 : 255,255,255

[HitObjects]
32,204,7345,5,8,2:2:0:0:
32,140,7428,1,8,2:2:0:0:
56,80,7511,1,0,2:2:0:0:
116,56,7594,1,0,2:2:0:0:
176,80,7678,2,0,P|256:88|268:168,1,160
324,200,7927,1,0,2:2:0:0:
384,220,8011,2,0,P|456:172|432:104,1,160
340,32,8344,2,0,P|256:72|260:140,1,160
252,256,8677,1,8,2:2:0:0:
188,256,8760,2,0,P|132:224|100:252,2,80
156,312,9010,2,0,P|60:288|56:224,1,160
40,176,9260,1,0,2:2:0:0:
56,112,9343,2,0,P|92:36|152:64,1,160
212,60,9593,1,8,2:2:0:0:
260,100,9676,1,0,2:2:0:0:
380,140,9842,2,0,B|416:196|416:196|348:272,1,160
332,328,10092,5,0,0:0:0:0:
268,312,10175,2,0,L|268:216,1,80
212,204,10342,2,0,P|140:244|68:208,1,160
88,152,10591,1,0,2:2:0:0:
48,104,10675,2,0,B|52:24|52:24|136:24,1,160
260,32,11008,2,0,B|344:12|344:12|388:80,1,160
420,128,11341,5,0,0:0:0:0:
424,160,11424,1,0,2:2:0:0:
404,184,11507,1,0,2:2:0:0:
376,196,11591,1,0,2:2:0:0:
348,184,11674,1,0,2:2:0:0:
320,168,11757,1,0,2:2:0:0:
304,140,11840,1,0,2:2:0:0:
272,132,11924,1,0,2:2:0:0:
248,152,12007,1,0,2:2:0:0:
240,184,12091,1,0,2:2:0:0:
248,216,12173,1,0,2:2:0:0:
268,240,12257,1,8,2:2:0:0:
296,256,12340,1,0,2:2:0:0:
324,276,12424,1,0,2:2:0:0:
304,300,12507,1,0,2:2:0:0:
276,312,12590,1,0,2:2:0:0:
244,304,12673,1,8,2:2:0:0:
4,212,13006,5,0,0:0:0:0:
112,48,13173,1,0,0:0:0:0:
148,92,13256,1,0,0:0:0:0:
196,64,13340,1,0,0:0:0:0:
464,48,13505,1,0,2:2:0:0:
376,316,13672,1,0,2:2:0:0:
196,356,13838,1,0,2:2:0:0:
64,288,14005,1,8,2:2:0:0:
108,240,14088,1,0,2:2:0:0:
168,224,14171,1,0,2:2:0:0:
232,232,14255,1,0,2:2:0:0:
288,260,14339,2,0,B|368:240|368:240|416:164,1,160
376,120,14588,1,0,2:2:0:0:
324,80,14672,2,0,B|272:68|272:68|272:108|272:108|212:160,1,160
180,104,14921,1,8,2:2:0:0:
136,56,15004,1,0,2:2:0:0:
168,280,15171,1,0,2:2:0:0:
392,260,15338,1,0,2:2:0:0:
280,72,16004,5,0,0:0:0:0:
68,312,16670,1,0,2:2:0:0:
464,104,17003,1,0,2:2:0:0:
304,344,17336,1,0,2:2:0:0:
304,200,17503,1,0,2:2:0:0:
168,156,17669,1,0,2:2:0:0:
180,116,17752,1,0,2:2:0:0:
204,84,17836,2,0,L|132:40,2,80
256,196,19335,5,0,2:2:0:0:
280,164,19418,1,0,2:2:0:0:
308,196,19501,1,0,2:2:0:0:
288,232,19584,1,0,2:2:0:0:
248,236,19668,1,0,2:2:0:0:
216,212,19751,1,0,2:2:0:0:
216,172,19834,1,0,2:2:0:0:
236,136,19917,1,0,2:2:0:0:
268,112,20001,1,0,2:2:0:0:
308,112,20084,1,0,2:2:0:0:
344,128,20167,1,0,2:2:0:0:
368,160,20250,1,0,2:2:0:0:
372,200,20334,1,0,2:2:0:0:
360,236,20417,1,0,2:2:0:0:
336,268,20500,1,0,2:2:0:0:
300,284,20583,1,0,2:2:0:0:
260,288,20667,1,0,2:2:0:0:
220,280,20750,1,0,2:2:0:0:
188,256,20833,1,0,2:2:0:0:
168,220,20917,2,0,L|92:264,2,80
160,168,21167,5,0,2:2:0:0:
164,128,21250,1,0,2:2:0:0:
184,88,21334,1,0,2:2:0:0:
220,60,21417,1,0,2:2:0:0:
264,52,21500,1,0,2:2:0:0:
312,56,21583,1,0,2:2:0:0:
348,80,21667,1,0,2:2:0:0:
380,108,21750,1,0,2:2:0:0:
404,140,21833,1,0,2:2:0:0:
416,180,21916,2,0,L|496:180,2,80
412,228,22166,1,0,2:2:0:0:
388,268,22249,1,0,2:2:0:0:
356,304,22333,1,0,2:2:0:0:
316,328,22416,1,0,2:2:0:0:
268,328,22499,1,0,2:2:0:0:
220,316,22583,1,0,2:2:0:0:
184,284,22666,1,0,2:2:0:0:
168,240,22749,1,0,2:2:0:0:
160,192,22832,5,0,2:2:0:0:
160,152,22915,2,0,L|84:180,2,80
172,108,23165,1,0,2:2:0:0:
216,84,23249,1,0,2:2:0:0:
264,88,23332,1,0,2:2:0:0:
312,100,23415,1,0,2:2:0:0:
344,136,23498,1,0,2:2:0:0:
344,184,23582,1,0,2:2:0:0:
328,228,23665,1,0,2:2:0:0:
288,252,23748,1,0,2:2:0:0:
240,244,23831,1,0,2:2:0:0:
208,208,23915,1,0,2:2:0:0:
200,160,23997,2,0,L|120:188,2,80
164,128,24247,2,0,L|80:116,2,80
148,84,24497,2,0,L|72:40,2,80
192,296,29992,6,0,P|193:198|220:200,1,160
149,127,30325,6,0,P|247:127|248:160,1,160
320,84,30658,6,0,P|319:182|288:180,1,160
360,256,30991,6,0,P|261:255|261:231,1,160
192,300,31325,2,0,B|100:256|100:256|124:184,1,160
148,128,31658,2,0,B|192:36|192:36|264:60,1,160
320,84,31991,2,0,B|412:128|412:128|388:200,1,160
360,256,32324,2,0,B|316:348|316:348|244:324,1,160
32,32,32657,2,0,L|32:192,1,160
480,356,32990,2,0,L|480:196,1,160
100,232,33323,2,0,L|100:72,1,160
412,156,33656,2,0,L|412:316,1,160
32,356,33989,2,0,L|192:356,1,160
488,32,34322,2,0,L|328:32,1,160
32,32,34655,2,0,L|192:32,1,160
488,356,34988,2,0,L|328:356,1,160
295,186,35321,6,0,P|357:149|320:88,1,160
246,152,35654,6,0,P|209:90|148:128,1,160
215,200,35987,6,0,P|153:237|191:299,1,160
264,231,36320,6,0,P|300:293|362:256,1,160
192,300,36653,2,0,B|100:256|100:256|124:184,1,160
260,329,36986,2,0,B|316:348|316:348|360:256,1,160
320,84,37319,2,0,B|412:128|412:128|388:200,1,160
247,54,37652,2,0,B|192:36|192:36|148:128,1,160
76,88,37986,1,0,2:2:0:0:
76,128,38069,1,0,2:2:0:0:
76,168,38152,1,0,2:2:0:0:
76,208,38235,1,0,2:2:0:0:
80,248,38319,1,0,2:2:0:0:
120,248,38402,1,0,2:2:0:0:
160,248,38485,1,0,2:2:0:0:
160,208,38568,1,0,2:2:0:0:
160,168,38652,1,0,2:2:0:0:
160,128,38735,1,0,2:2:0:0:
160,88,38818,1,0,2:2:0:0:
200,88,38902,1,0,2:2:0:0:
240,92,38985,1,0,2:2:0:0:
240,132,39068,1,0,2:2:0:0:
240,172,39151,1,0,2:2:0:0:
240,212,39235,1,0,2:2:0:0:
240,252,39318,1,0,2:2:0:0:
32,44,40650,5,0,0:0:0:0:
376,120,40983,1,0,2:2:0:0:
252,28,41150,1,8,2:2:0:0:
44,340,41649,1,0,2:2:0:0:
40,132,41982,2,0,P|12:176|48:220,2,80
88,212,42315,1,0,2:2:0:0:
88,248,42399,1,0,2:2:0:0:
88,280,42482,1,0,2:2:0:0:
176,136,42648,2,0,P|181:174|155:203,2,80
252,132,42981,1,0,2:2:0:0:
252,96,43065,1,0,2:2:0:0:
252,60,43148,1,0,2:2:0:0:
464,48,43315,5,0,0:0:0:0:
384,232,43481,1,0,2:2:0:0:
356,256,43564,1,0,2:2:0:0:
328,280,43648,1,0,2:2:0:0:
40,256,43814,1,8,2:2:0:0:
136,352,44314,1,0,2:2:0:0:
32,168,44647,1,8,2:2:0:0:
136,116,44813,1,8,2:2:0:0:
160,88,44897,1,0,2:2:0:0:
180,64,44980,1,8,2:2:0:0:
244,116,45146,1,8,2:2:0:0:
268,88,45230,1,0,2:2:0:0:
288,64,45313,1,8,2:2:0:0:
396,64,45479,1,8,2:2:0:0:
376,88,45562,1,0,2:2:0:0:
352,116,45646,1,8,2:2:0:0:
488,64,45812,1,8,2:2:0:0:
468,88,45895,1,0,2:2:0:0:
444,116,45979,1,8,2:2:0:0:
392,352,46312,1,0,2:2:0:0:
444,116,46479,1,8,2:2:0:0:
208,56,46978,5,0,0:0:0:0:
32,348,47311,1,8,2:2:0:0:
112,296,47478,1,8,2:2:0:0:
88,260,47561,1,0,2:2:0:0:
64,228,47644,1,8,2:2:0:0:
304,296,47811,1,8,2:2:0:0:
328,260,47894,1,0,2:2:0:0:
352,228,47977,1,8,2:2:0:0:
152,216,48144,1,8,2:2:0:0:
128,180,48227,1,0,2:2:0:0:
104,148,48310,1,8,2:2:0:0:
264,216,48477,1,8,2:2:0:0:
288,180,48560,1,0,2:2:0:0:
312,148,48643,1,8,2:2:0:0:
212,116,48976,1,0,2:2:0:0:
212,324,49143,1,8,2:2:0:0:
480,28,49643,1,0,2:2:0:0:
408,96,49976,5,0,0:0:0:0:
380,120,50059,1,0,2:2:0:0:
356,140,50142,1,0,2:2:0:0:
288,200,50309,1,0,2:2:0:0:
260,224,50392,1,0,2:2:0:0:
236,244,50475,1,0,2:2:0:0:
152,316,50642,1,8,2:2:0:0:
236,244,50808,1,0,2:2:0:0:
260,224,50891,1,0,2:2:0:0:
288,200,50974,1,0,2:2:0:0:
356,140,51141,1,0,2:2:0:0:
380,120,51224,1,0,2:2:0:0:
408,96,51307,1,0,2:2:0:0:
476,32,51641,1,0,2:2:0:0:
88,96,51807,1,8,2:2:0:0:
424,328,52307,5,0,0:0:0:0:
256,272,52474,1,0,2:2:0:0:
188,108,52640,1,0,2:2:0:0:
392,80,52807,2,0,P|392:120|304:132,2,80
292,80,53140,2,0,P|292:120|204:132,2,80
164,144,53473,2,0,P|191:115|190:76,2,80
64,144,53806,2,0,P|91:115|90:76,2,80
60,252,54139,1,0,2:2:0:0:
92,280,54222,1,0,0:0:0:0:
124,304,54305,1,0,0:0:0:0:
320,228,54472,1,0,2:2:0:0:
424,184,54971,5,0,0:0:0:0:
32,32,55305,1,0,2:2:0:0:
72,32,55388,1,0,2:2:0:0:
116,32,55471,1,0,2:2:0:0:
480,32,55638,1,0,2:2:0:0:
436,32,55721,1,0,2:2:0:0:
396,32,55804,1,0,2:2:0:0:
32,352,55971,1,0,2:2:0:0:
72,352,56054,1,0,2:2:0:0:
116,352,56137,1,0,2:2:0:0:
480,352,56304,1,0,2:2:0:0:
436,352,56387,1,0,2:2:0:0:
396,352,56470,1,0,2:2:0:0:
256,192,56637,1,8,2:2:0:0:
88,364,56970,1,0,2:2:0:0:
364,192,57136,1,8,2:2:0:0:
460,192,57636,1,0,2:2:0:0:
28,32,57969,5,0,0:0:0:0:
60,312,58136,1,8,2:2:0:0:
44,336,58219,1,0,2:2:0:0:
76,336,58302,1,8,2:2:0:0:
316,268,58469,1,8,2:2:0:0:
337,248,58552,1,0,2:2:0:0:
342,280,58635,1,8,2:2:0:0:
144,108,58802,1,8,2:2:0:0:
175,101,58885,1,0,2:2:0:0:
154,81,58968,1,8,2:2:0:0:
412,96,59135,1,8,2:2:0:0:
433,76,59218,1,0,2:2:0:0:
438,108,59301,1,8,2:2:0:0:
56,156,59634,1,0,2:2:0:0:
408,336,59801,1,0,2:2:0:0:
232,188,60300,5,0,0:0:0:0:
213,176,61966,2,0,P|196:112|224:80,1,80
271,149,62132,2,0,P|336:132|368:160,1,80
298,207,62299,2,0,P|316:272|288:304,1,80
240,234,62465,2,0,P|176:252|144:224,1,80
176,224,62632,2,0,L|80:224,1,80
100,160,62798,2,0,L|180:160,1,80
220,96,62965,2,0,L|124:96,1,80
216,32,63131,2,0,L|296:32,1,80
288,96,63298,2,0,L|368:96,1,80
412,160,63464,2,0,L|332:160,1,80
412,224,63631,2,0,L|332:224,1,80
292,288,63798,2,0,L|388:288,1,80
296,352,63964,2,0,L|216:352,1,80
224,288,64131,2,0,L|144:288,1,80
100,224,64297,2,0,L|180:224,1,80
140,172,64464,1,0,0:0:0:0:
96,124,64547,1,0,0:0:0:0:
148,88,64630,1,0,0:0:0:0:
192,40,64713,1,0,0:0:0:0:
232,88,64797,1,0,0:0:0:0:
280,132,64880,1,0,0:0:0:0:
316,184,64963,5,0,0:0:0:0:
380,220,65046,2,0,P|432:179|472:192,1,80
427,262,65212,2,0,P|468:315|454:355,1,80
384,310,65379,2,0,P|331:351|290:338,1,80
337,267,65545,2,0,P|295:215|308:174,1,80
232,176,65713,2,0,P|193:170|159:190,1,80
86,144,65879,2,0,P|80:182|100:216,1,80
55,288,66046,2,0,P|93:294|127:274,1,80
199,321,66212,2,0,P|205:282|185:248,1,80
244,220,66379,2,0,P|282:211|305:179,1,80
390,194,66545,2,0,P|380:155|349:132,1,80
363,50,66712,2,0,P|324:58|300:89,1,80
219,73,66878,2,0,P|227:111|258:135,1,80
92,152,67045,2,0,P|65:181|26:186,1,80
48,105,67211,2,0,P|18:78|12:39,1,80
95,60,67378,2,0,P|120:30|159:23,1,80
138,108,67544,2,0,P|167:133|173:172,1,80
204,176,67711,5,0,0:0:0:0:
248,160,67794,1,0,0:0:0:0:
276,148,67877,1,0,0:0:0:0:
304,128,67961,1,0,0:0:0:0:
332,116,68044,1,0,0:0:0:0:
364,116,68127,1,0,0:0:0:0:
388,136,68210,1,0,0:0:0:0:
408,160,68294,1,0,0:0:0:0:
416,192,68377,1,0,0:0:0:0:
404,220,68460,1,0,0:0:0:0:
380,240,68544,1,0,0:0:0:0:
364,268,68627,1,0,0:0:0:0:
312,228,68710,2,0,P|280:196|228:208,1,80
192,224,68877,2,0,P|224:256|276:244,1,80
200,164,69043,2,0,P|168:132|116:144,1,80
80,160,69210,2,0,P|112:192|164:180,1,80
156,164,69376,5,0,0:0:0:0:
180,140,69459,1,0,0:0:0:0:
208,120,69543,1,0,0:0:0:0:
240,108,69626,1,0,0:0:0:0:
272,108,69709,1,0,0:0:0:0:
296,128,69792,1,0,0:0:0:0:
316,152,69876,1,0,0:0:0:0:
324,184,69959,1,0,0:0:0:0:
324,216,70042,1,0,0:0:0:0:
308,244,70126,1,0,0:0:0:0:
288,268,70209,1,0,0:0:0:0:
268,292,70292,1,0,0:0:0:0:
200,312,70375,2,0,L|140:240,1,80
72,288,70542,2,0,L|12:216,1,80
16,160,70708,2,0,L|76:88,1,80
144,136,70875,2,0,L|204:64,1,80
312,76,71041,2,0,L|372:148,1,80
440,100,71208,2,0,L|500:172,1,80
496,228,71374,2,0,L|436:300,1,80
368,252,71541,2,0,L|308:324,1,80
280,300,71708,5,0,0:0:0:0:
244,312,71791,1,0,0:0:0:0:
204,316,71874,1,0,0:0:0:0:
164,308,71957,1,0,0:0:0:0:
124,296,72041,1,0,0:0:0:0:
92,272,72124,1,0,0:0:0:0:
64,244,72207,1,0,0:0:0:0:
48,208,72290,1,0,0:0:0:0:
44,168,72374,1,0,0:0:0:0:
56,128,72457,1,0,0:0:0:0:
76,92,72540,5,0,0:0:0:0:
104,64,72623,1,0,0:0:0:0:
144,56,72707,1,0,0:0:0:0:
180,68,72790,1,0,0:0:0:0:
192,104,72873,1,0,0:0:0:0:
184,144,72956,1,0,0:0:0:0:
176,184,73040,1,0,0:0:0:0:
180,224,73123,1,0,0:0:0:0:
204,256,73206,1,0,0:0:0:0:
236,280,73290,1,0,0:0:0:0:
276,276,73373,1,0,0:0:0:0:
312,256,73456,1,0,0:0:0:0:
340,224,73539,1,0,0:0:0:0:
344,184,73623,1,0,0:0:0:0:
344,144,73706,2,0,L|416:84,1,80
296,96,73872,2,0,L|368:36,1,80
216,96,74039,2,0,L|144:36,1,80
168,144,74205,2,0,L|96:84,1,80
168,240,74372,2,0,L|96:300,1,80
216,288,74538,2,0,L|144:348,1,80
296,288,74705,2,0,L|368:348,1,80
344,240,74872,2,0,L|416:300,1,80
168,144,75038,2,0,P|152:100|172:76,3,80
304,104,75371,2,0,P|348:88|372:108,3,80
344,240,75704,2,0,P|360:284|340:308,3,80
208,280,76037,2,0,P|164:296|140:276,3,80
232,312,76370,5,0,0:0:0:0:
232,344,76454,1,0,0:0:0:0:
196,364,76537,1,0,0:0:0:0:
152,364,76620,1,0,0:0:0:0:
32,360,76703,2,0,L|120:360,1,80
32,292,76870,2,0,L|120:292,1,80
32,224,77036,2,0,L|120:224,1,80
32,156,77203,2,0,L|120:156,1,80
32,92,77369,2,0,L|120:92,1,80
32,24,77536,2,0,L|120:24,1,80
144,48,77703,5,0,0:0:0:0:
164,96,77786,1,0,0:0:0:0:
184,148,77869,1,0,0:0:0:0:
204,200,77952,1,0,0:0:0:0:
224,252,78036,1,0,0:0:0:0:
240,304,78119,1,0,0:0:0:0:
256,356,78202,1,0,0:0:0:0:
272,304,78285,1,0,0:0:0:0:
288,252,78368,1,0,0:0:0:0:
308,200,78452,1,0,0:0:0:0:
328,148,78535,1,0,0:0:0:0:
348,96,78618,1,0,0:0:0:0:
368,44,78702,5,0,0:0:0:0:
400,24,78785,2,0,L|480:24,1,80
400,92,78952,2,0,L|480:92,1,80
400,156,79118,2,0,L|480:156,1,80
400,224,79285,2,0,L|480:224,1,80
400,292,79451,2,0,L|480:292,1,80
400,360,79618,2,0,L|480:360,1,80
216,232,79784,5,0,0:0:0:0:
258,354,79951,1,0,0:0:0:0:
295,230,80117,1,0,0:0:0:0:
192,308,80284,1,0,0:0:0:0:
322,306,80450,1,0,0:0:0:0:
52,80,80617,1,0,0:0:0:0:
94,202,80784,1,0,0:0:0:0:
131,78,80950,1,0,0:0:0:0:
28,156,81117,1,0,0:0:0:0:
158,154,81283,1,0,0:0:0:0:
360,44,81449,1,0,0:0:0:0:
402,166,81616,1,0,0:0:0:0:
439,42,81782,1,0,0:0:0:0:
336,120,81949,1,0,0:0:0:0:
466,118,82115,1,0,0:0:0:0:
64,220,82282,1,0,0:0:0:0:
106,342,82449,1,0,0:0:0:0:
143,218,82615,1,0,0:0:0:0:
40,296,82782,1,0,0:0:0:0:
170,294,82948,1,0,0:0:0:0:
220,248,83115,1,0,0:0:0:0:
256,192,83281,5,0,2:2:0:0:
230,214,93939,6,0,L|200:240,7,40
233,166,94272,2,0,L|200:136,7,40
284,168,94605,2,0,L|319:143,7,40
278,217,94938,2,0,L|328:256,7,40
256,192,95271,5,0,2:2:0:0:
228,239,96603,1,0,0:0:0:0:
228,143,96770,1,0,0:0:0:0:
311,192,96937,1,0,0:0:0:0:
203,230,97103,1,0,0:0:0:0:
249,127,97270,1,0,0:0:0:0:
315,218,97436,1,0,0:0:0:0:
192,202,97603,1,0,0:0:0:0:
279,131,97769,1,0,0:0:0:0:
296,242,97936,1,0,0:0:0:0:
256,192,98102,1,0,0:0:0:0:
228,266,98269,1,0,0:0:0:0:
181,164,98435,1,0,0:0:0:0:
283,117,98602,1,0,0:0:0:0:
330,219,98768,1,0,0:0:0:0:
198,246,98935,1,0,0:0:0:0:
201,134,99101,1,0,0:0:0:0:
313,137,99268,1,0,0:0:0:0:
310,249,99434,1,0,0:0:0:0:
176,197,99601,1,0,0:0:0:0:
250,112,99767,1,0,0:0:0:0:
335,186,99934,1,0,0:0:0:0:
261,271,100101,1,0,0:0:0:0:
256,192,100267,1,0,0:0:0:0:
192,262,100434,1,0,0:0:0:0:
168,153,100600,1,0,0:0:0:0:
265,97,100767,1,0,0:0:0:0:
349,172,100933,1,0,0:0:0:0:
303,274,101100,1,0,0:0:0:0:
171,236,101266,1,0,0:0:0:0:
187,125,101433,1,0,0:0:0:0:
297,106,101599,1,0,0:0:0:0:
350,205,101766,1,0,0:0:0:0:
272,285,101932,1,0,0:0:0:0:
161,203,102099,1,0,0:0:0:0:
215,105,102265,1,0,0:0:0:0:
325,127,102432,1,0,0:0:0:0:
339,238,102598,1,0,0:0:0:0:
237,285,102765,1,0,0:0:0:0:
256,192,102932,1,0,0:0:0:0:
187,280,103098,1,0,0:0:0:0:
145,176,103265,1,0,0:0:0:0:
214,88,103431,1,0,0:0:0:0:
324,103,103598,1,0,0:0:0:0:
366,207,103764,1,0,0:0:0:0:
297,295,103931,1,0,0:0:0:0:
288,276,104097,1,0,0:0:0:0:
272,252,104264,1,0,0:0:0:0:
260,224,104430,1,0,0:0:0:0:
256,192,104597,5,0,0:0:0:0:
240,164,104680,1,0,0:0:0:0:
212,148,104763,1,0,0:0:0:0:
180,156,104847,1,0,0:0:0:0:
148,160,104930,1,0,0:0:0:0:
124,140,105013,1,0,0:0:0:0:
100,120,105096,1,0,0:0:0:0:
104,88,105180,1,0,0:0:0:0:
132,72,105263,1,0,0:0:0:0:
160,56,105346,1,0,0:0:0:0:
192,64,105429,1,0,0:0:0:0:
220,52,105513,1,0,0:0:0:0:
248,64,105596,1,0,0:0:0:0:
276,84,105679,1,0,0:0:0:0:
308,80,105762,1,0,0:0:0:0:
324,108,105846,1,0,0:0:0:0:
256,192,105929,1,0,0:0:0:0:
480,340,107261,5,0,0:0:0:0:
136,264,107594,1,0,2:2:0:0:
260,356,107761,1,8,2:2:0:0:
468,44,108260,1,0,2:2:0:0:
472,252,108593,2,0,P|500:208|464:164,2,80
424,172,108926,1,0,2:2:0:0:
424,136,109010,1,0,2:2:0:0:
424,104,109093,1,0,2:2:0:0:
336,248,109259,2,0,P|331:210|357:181,2,80
260,252,109592,1,0,2:2:0:0:
260,288,109676,1,0,2:2:0:0:
260,324,109759,1,0,2:2:0:0:
48,336,109926,5,0,0:0:0:0:
128,152,110092,1,0,2:2:0:0:
156,128,110175,1,0,2:2:0:0:
184,104,110259,1,0,2:2:0:0:
472,128,110425,1,8,2:2:0:0:
376,32,110925,1,0,2:2:0:0:
480,216,111258,1,8,2:2:0:0:
376,268,111424,1,8,2:2:0:0:
352,296,111508,1,0,2:2:0:0:
332,320,111591,1,8,2:2:0:0:
268,268,111757,1,8,2:2:0:0:
244,296,111841,1,0,2:2:0:0:
224,320,111924,1,8,2:2:0:0:
116,320,112090,1,8,2:2:0:0:
136,296,112173,1,0,2:2:0:0:
160,268,112257,1,8,2:2:0:0:
24,320,112423,1,8,2:2:0:0:
44,296,112506,1,0,2:2:0:0:
68,268,112590,1,8,2:2:0:0:
120,32,112923,1,0,2:2:0:0:
68,268,113090,1,8,2:2:0:0:
304,328,113589,5,0,0:0:0:0:
480,36,113922,1,8,2:2:0:0:
400,88,114089,1,8,2:2:0:0:
424,124,114172,1,0,2:2:0:0:
448,156,114255,1,8,2:2:0:0:
208,88,114422,1,8,2:2:0:0:
184,124,114505,1,0,2:2:0:0:
160,156,114588,1,8,2:2:0:0:
360,168,114755,1,8,2:2:0:0:
384,204,114838,1,0,2:2:0:0:
408,236,114921,1,8,2:2:0:0:
248,168,115088,1,8,2:2:0:0:
224,204,115171,1,0,2:2:0:0:
200,236,115254,1,8,2:2:0:0:
300,268,115587,1,0,2:2:0:0:
300,60,115754,1,8,2:2:0:0:
480,28,116254,1,0,2:2:0:0:
408,96,116587,5,0,0:0:0:0:
380,120,116670,1,0,2:2:0:0:
356,140,116753,1,0,2:2:0:0:
288,200,116920,1,0,2:2:0:0:
260,224,117003,1,0,2:2:0:0:
236,244,117086,1,0,2:2:0:0:
152,316,117253,1,8,2:2:0:0:
236,244,117419,1,0,2:2:0:0:
260,224,117502,1,0,2:2:0:0:
288,200,117585,1,0,2:2:0:0:
356,140,117752,1,0,2:2:0:0:
380,120,117835,1,0,2:2:0:0:
408,96,117918,1,0,2:2:0:0:
476,32,118252,1,0,2:2:0:0:
88,96,118418,1,8,2:2:0:0:
424,328,118918,5,0,0:0:0:0:
256,272,119085,1,0,2:2:0:0:
188,108,119251,1,0,2:2:0:0:
392,80,119418,2,0,P|392:120|304:132,2,80
292,80,119751,2,0,P|292:120|204:132,2,80
164,144,120084,2,0,P|191:115|190:76,2,80
64,144,120417,2,0,P|91:115|90:76,2,80
60,252,120750,1,0,2:2:0:0:
92,280,120833,1,0,0:0:0:0:
124,304,120916,1,0,0:0:0:0:
320,228,121083,1,0,2:2:0:0:
424,184,121582,5,0,0:0:0:0:
32,32,121916,1,0,2:2:0:0:
72,32,121999,1,0,2:2:0:0:
116,32,122082,1,0,2:2:0:0:
480,32,122249,1,0,2:2:0:0:
436,32,122332,1,0,2:2:0:0:
396,32,122415,1,0,2:2:0:0:
32,352,122582,1,0,2:2:0:0:
72,352,122665,1,0,2:2:0:0:
116,352,122748,1,0,2:2:0:0:
480,352,122915,1,0,2:2:0:0:
436,352,122998,1,0,2:2:0:0:
396,352,123081,1,0,2:2:0:0:
256,192,123248,1,8,2:2:0:0:
88,364,123581,1,0,2:2:0:0:
364,192,123747,1,8,2:2:0:0:
460,192,124247,1,0,2:2:0:0:
28,32,124580,5,0,0:0:0:0:
60,312,124747,1,8,2:2:0:0:
44,336,124830,1,0,2:2:0:0:
76,336,124913,1,8,2:2:0:0:
316,268,125080,1,8,2:2:0:0:
337,248,125163,1,0,2:2:0:0:
342,280,125246,1,8,2:2:0:0:
144,108,125413,1,8,2:2:0:0:
175,101,125496,1,0,2:2:0:0:
154,81,125579,1,8,2:2:0:0:
412,96,125746,1,8,2:2:0:0:
433,76,125829,1,0,2:2:0:0:
438,108,125912,1,8,2:2:0:0:
56,156,126245,1,0,2:2:0:0:
408,336,126412,1,0,2:2:0:0:
256,192,126912,12,0,128577,0:0:0:0:
256,192,149892,6,0,L|280:152,23,40
172,224,150892,2,0,L|124:244,7,40
180,140,151225,2,0,L|220:208,23,40
276,160,152224,2,0,L|280:112,7,40
344,208,152557,2,0,L|376:240,31,40
368,256,153889,5,0,0:0:0:0:
344,288,153972,1,0,0:0:0:0:
304,292,154056,1,0,0:0:0:0:
272,272,154139,1,0,0:0:0:0:
260,232,154222,1,0,0:0:0:0:
272,192,154305,1,0,0:0:0:0:
292,156,154389,1,0,0:0:0:0:
280,116,154472,1,0,0:0:0:0:
252,88,154555,1,8,0:0:0:0:
224,60,154638,1,0,0:0:0:0:
184,56,154722,1,0,0:0:0:0:
164,92,154805,1,0,0:0:0:0:
156,132,154888,1,0,0:0:0:0:
136,164,154971,1,0,0:0:0:0:
100,180,155055,1,0,0:0:0:0:
64,160,155138,1,0,0:0:0:0:
56,120,155221,1,0,0:0:0:0:
28,312,155887,5,0,0:0:0:0:
292,356,156054,1,0,0:0:0:0:
472,64,156220,1,0,0:0:0:0:
96,76,156387,1,0,0:0:0:0:
404,256,156553,2,0,L|380:216,7,40
272,196,156887,2,0,L|232:216,7,40
368,164,157220,2,0,L|440:148,7,40
316,292,157553,2,0,L|300:332,7,40
424,232,157886,2,0,L|464:208,22,40
432,160,158885,1,0,0:0:0:0:
48,48,159051,1,0,0:0:0:0:
376,352,159218,1,8,0:0:0:0:
272,40,159384,1,0,0:0:0:0:
56,352,159551,1,0,0:0:0:0:
284,152,159718,5,0,0:0:0:0:
32,200,159884,2,0,L|56:248,7,40
76,124,160217,2,0,L|40:64,7,40
128,200,160550,2,0,L|140:152,6,40
160,104,160883,1,8,0:0:0:0:
244,60,161050,2,0,L|280:96,6,40
320,144,161383,1,8,0:0:0:0:
48,344,161549,2,0,L|32:292,7,40
112,288,161882,2,0,L|160:308,6,40
108,216,162215,1,0,0:0:0:0:
48,136,162382,2,0,L|8:112,6,40
96,76,162715,1,0,0:0:0:0:
252,64,162882,2,0,L|304:16,6,40
308,124,163215,2,0,L|304:172,6,40
384,160,163548,1,8,0:0:0:0:
400,284,163714,2,0,L|448:244,6,40
336,320,164047,1,8,0:0:0:0:
224,300,164214,2,0,L|260:332,7,40
156,300,164547,2,0,L|128:336,6,40
192,240,164880,5,0,0:0:0:0:
120,188,165046,2,0,L|88:152,6,40
152,132,165379,1,8,0:0:0:0:
104,76,165546,2,0,L|72:112,7,40
104,76,165879,2,0,L|60:48,6,40
156,28,166212,1,0,0:0:0:0:
256,76,166379,2,0,L|288:48,6,40
284,136,166712,1,8,0:0:0:0:
372,168,166878,2,0,L|356:128,7,40
372,168,167211,2,0,L|416:152,6,40
336,228,167544,1,0,0:0:0:0:
280,312,167711,2,0,L|320:352,6,40
216,336,168044,1,8,0:0:0:0:
148,288,168210,2,0,L|104:268,7,40
152,220,168544,2,0,L|100:236,6,40
128,164,168877,1,0,0:0:0:0:
164,76,169043,2,0,L|124:44,6,40
224,64,169376,1,0,0:0:0:0:
280,112,169543,2,0,L|336:76,7,40
344,152,169876,2,0,L|384:128,6,40
372,220,170209,5,8,0:0:0:0:
308,296,170375,2,0,L|340:328,6,40
240,304,170708,1,8,0:0:0:0:
172,272,170875,2,0,L|144:312,6,40
248,192,171208,1,8,0:0:0:0:
