osu file format v12

[General]
AudioFilename: 07 - Shut Down Everything.mp3
AudioLeadIn: 0
PreviewTime: 19844
Countdown: 1
SampleSet: Normal
StackLeniency: 0.7
Mode: 0
LetterboxInBreaks: 1
WidescreenStoryboard: 0

[Editor]
DistanceSpacing: 0.5
BeatDivisor: 4
GridSize: 8

[Metadata]
Title:Shut Down Everything
TitleUnicode:Shut Down Everything
Artist:The Quick Brown Fox
ArtistUnicode:The Quick Brown Fox
Creator:119410501
Version:Shut Down
Source:Lapfox
Tags:renard eminem rap the quick brown fox speedcore fast high bpm stream streams jumps serious shit big black holy macaroni coward killing time raggacore hardcore hardkore lol nightcore hatsune miku vocaloid
BeatmapID:300824
BeatmapSetID:116621

[Difficulty]
HPDrainRate:2
CircleSize:4
OverallDifficulty:5
ApproachRate:10
SliderMultiplier:1.4
SliderTickRate:1

[Events]
//Background and Video events
0,0,"love.jpg",0,0
//Break Periods
2,2927,6377
2,7287,10347
2,86898,90370
2,91290,94694
//Storyboard Layer 0 (Background)
//Storyboard Layer 1 (Fail)
//Storyboard Layer 2 (Pass)
//Storyboard Layer 3 (Foreground)
//Storyboard Sound Samples
//Background Colour Transformations
3,100,163,162,255

[TimingPoints]
22022.6650536129,130.151843817787,4,1,0,100,1,0
22055,90.0900900900901,4,1,0,100,1,0
39127,1363.63636363636,4,1,0,100,1,0
39467,90.0900900900901,4,1,0,100,1,0
67304,-100,4,1,0,5,0,0
67845,-100,4,1,0,100,0,0
84872,1363.63636363636,4,1,0,100,1,0
85212,90.0900900900901,4,1,0,100,1,0
123547,-100,4,1,0,5,0,0

[Colours]
Combo1 : 255,192,0
Combo2 : 255,0,0
Combo3 : 18,124,255
Combo4 : 0,232,0

[HitObjects]
256,192,254,1,0,0:0:0:0:
256,192,417,12,0,2434,0:0:0:0:
256,192,2727,5,0,0:0:0:0:
104,72,6827,5,0,0:0:0:0:
368,256,7087,1,0,0:0:0:0:
256,192,10797,12,0,11187,0:0:0:0:
256,312,11187,6,0,B|256:176|256:176|312:16,1,280
256,312,11708,6,0,B|256:176|256:176|200:16,1,280
208,40,12098,1,0,0:0:0:0:
256,72,12228,6,0,B|256:208|256:208|200:368,1,280
256,72,12781,6,0,B|256:208|256:208|200:368,1,280
208,343,13172,1,0,0:0:0:0:
328,288,13302,6,0,L|128:32,1,315
176,256,13855,2,0,L|8:0,1,280
216,96,14246,1,0,0:0:0:0:
272,216,14408,2,0,P|384:200|296:64,1,315
192,336,14961,6,0,B|224:256|224:256|272:296|272:296|368:152,1,315
72,272,15547,5,0,0:0:0:0:
112,224,15612,1,0,0:0:0:0:
96,160,15677,1,0,0:0:0:0:
56,112,15775,1,0,0:0:0:0:
440,272,15937,5,0,0:0:0:0:
400,224,16002,1,0,0:0:0:0:
416,160,16067,1,0,0:0:0:0:
456,112,16198,1,0,0:0:0:0:
256,224,16361,6,0,L|256:136,2,70
440,112,16621,5,0,0:0:0:0:
400,160,16686,1,0,0:0:0:0:
416,224,16751,1,0,0:0:0:0:
456,272,16849,1,0,0:0:0:0:
72,112,17011,5,0,0:0:0:0:
112,160,17076,1,0,0:0:0:0:
96,224,17141,1,0,0:0:0:0:
56,272,17272,1,0,0:0:0:0:
256,160,17435,6,0,L|256:248,2,70
336,376,17727,5,0,0:0:0:0:
288,336,17792,1,0,0:0:0:0:
224,352,17857,1,0,0:0:0:0:
176,392,17955,1,0,0:0:0:0:
336,8,18117,5,0,0:0:0:0:
288,48,18182,1,0,0:0:0:0:
224,32,18247,1,0,0:0:0:0:
176,0,18378,1,0,0:0:0:0:
288,192,18541,6,0,L|200:192,2,70
256,192,18899,12,0,19842,0:0:0:0:
72,344,19875,6,0,B|72:208|264:288|248:64|464:256|400:40,1,490
344,56,20363,2,0,B|104:40|464:120|168:168|168:168|88:288|520:240|152:336|528:376,1,735
256,192,21176,12,0,21502,0:0:0:0:
256,192,21534,12,0,21794,0:0:0:0:
96,256,22055,6,0,L|160:176,2,70
88,160,22167,6,0,L|152:80,2,70
64,72,22280,6,0,L|128:-8,2,70
160,88,22392,6,0,L|224:152,3,70
328,192,22572,2,0,L|256:264,1,70
296,288,22640,2,0,L|392:344,3,105
424,272,22865,6,0,L|400:176,8,70
320,80,23248,6,0,L|232:16,5,105
272,48,23609,1,0,0:0:0:0:
224,104,23699,2,0,L|168:208,7,105
112,280,24194,6,0,B|64:328|64:328|88:336|88:336,8,70
160,232,24600,1,0,0:0:0:0:
216,192,24645,2,0,B|264:240|264:240|240:248|240:248,8,70
280,128,25050,5,0,0:0:0:0:
112,56,25163,1,0,0:0:0:0:
64,144,25298,2,0,L|152:176,11,70
200,264,25861,6,0,L|248:296,15,35,0|0|0|0|0|0|0|0|0|0|0|0|0|0|0|0,0:0|0:0|0:0|0:0|0:0|0:0|0:0|0:0|0:0|0:0|0:0|0:0|0:0|0:0|0:0|0:0,0:0:0:0:
416,256,26311,6,0,L|352:176,2,70
424,160,26423,6,0,L|360:80,2,70
448,72,26536,6,0,L|384:-8,2,70
352,88,26648,6,0,L|288:152,3,70
184,192,26828,2,0,L|256:264,1,70
216,288,26896,2,0,L|120:344,3,105
88,272,27121,6,0,L|112:176,8,70
192,80,27504,6,0,L|280:16,5,105
240,48,27865,1,0,0:0:0:0:
288,104,27955,2,0,L|344:208,4,105
256,328,28248,5,0,0:0:0:0:
256,192,28338,1,0,0:0:0:0:
256,16,28451,1,0,0:0:0:0:
400,280,28564,6,0,B|448:328|448:328|424:336|424:336,6,70
352,232,28856,1,0,0:0:0:0:
296,192,28901,2,0,B|248:240|248:240|272:248|272:248,9,70
232,128,29419,5,0,0:0:0:0:
400,56,29532,1,0,0:0:0:0:
448,144,29622,2,0,L|360:176,9,70
336,200,30073,1,0,0:0:0:0:
312,264,30117,6,0,L|264:296,27,35
72,192,30793,6,0,L|160:192|152:192,8,70
240,192,31221,2,0,L|328:104,5,105
408,320,31627,5,0,0:0:0:0:
408,224,31739,1,0,0:0:0:0:
360,128,31874,6,0,L|296:72,6,70
256,320,32235,2,0,L|256:184,4,105
256,96,32573,5,0,0:0:0:0:
192,160,32708,1,0,0:0:0:0:
160,272,32843,1,0,0:0:0:0:
58,138,33000,2,0,L|32:32,4,105
232,256,33361,2,0,B|272:184|272:184|248:168,5,105
336,328,33811,5,0,0:0:0:0:
416,216,33924,1,0,0:0:0:0:
320,168,33991,2,0,L|336:72,8,70
328,112,34442,1,0,0:0:0:0:
208,184,34532,6,0,L|256:184|248:184,19,35
72,192,35118,6,0,L|160:192|152:192,8,70
240,192,35546,2,0,L|328:104,5,105
408,320,35952,5,0,0:0:0:0:
408,224,36064,1,0,0:0:0:0:
360,128,36199,6,0,L|296:72,6,70
256,320,36560,2,0,L|256:184,5,105
256,96,36943,5,0,0:0:0:0:
192,160,37078,1,0,0:0:0:0:
160,272,37190,1,0,0:0:0:0:
58,138,37325,2,0,L|32:32,4,105
232,256,37686,2,0,B|272:184|272:184|248:168,5,105
336,328,38136,5,0,0:0:0:0:
416,216,38271,1,0,0:0:0:0:
320,168,38338,2,0,L|336:72,8,70
328,112,38744,1,0,0:0:0:0:
208,184,38857,6,0,L|256:184|248:184,11,35
248,176,39127,6,0,L|248:136,1,35
112,272,39534,6,0,P|48:208|88:168,1,140
128,120,39647,1,0,0:0:0:0:
192,80,39669,2,0,L|272:56,5,70
240,296,40030,6,0,L|264:208,6,70
344,168,40367,6,0,L|440:144,6,70
256,120,40728,6,0,L|352:96,6,70
256,224,41178,6,0,L|256:160,10,35
208,160,41448,6,0,L|208:96,12,35
344,320,41786,6,0,L|392:232,7,70
304,144,42169,2,0,L|288:72,7,70
192,72,42575,6,0,L|104:96,6,70
168,152,42957,2,0,L|200:232,6,70
256,312,43318,6,0,L|256:264,11,35
352,216,43611,2,0,L|320:184,9,35
416,80,43926,6,0,L|416:168,6,70
384,240,44309,6,0,L|384:152,6,70
320,96,44692,6,0,L|320:184,6,70
240,240,45097,6,0,L|272:168,6,70
128,184,45525,6,0,L|128:144,11,35
128,184,45818,2,0,L|192:192,10,35
96,80,46088,6,0,L|96:168,6,70
128,240,46471,6,0,L|128:152,6,70
192,96,46854,6,0,L|192:184,6,70
304,264,47169,6,0,L|320:216,6,35
288,304,47327,6,0,L|256:352,6,35
304,336,47485,6,0,L|336:384,9,35
368,312,47687,6,0,L|336:264,7,35
328,240,47845,6,0,L|280:240,12,35
368,352,48250,6,0,L|280:352,6,70
208,320,48633,6,0,L|296:320,6,70
352,256,49016,6,0,L|264:256,6,70
208,176,49421,6,0,L|280:208,6,70
264,64,49849,6,0,L|304:64,11,35
184,64,50119,2,0,L|176:128,10,35
416,80,50435,6,0,L|416:168,6,70
416,256,50818,6,0,L|416:168,6,70
416,288,51201,6,0,L|416:376,6,70
368,192,51606,6,0,L|272:192,6,70
472,192,52034,6,0,L|472:152,11,35
32,192,52304,2,0,L|32:256,10,35
144,32,52642,6,0,L|232:32,6,70
216,88,53048,6,0,L|168:144,6,70
176,192,53431,6,0,L|232:256,6,70
304,208,53836,6,0,L|232:176,6,70
264,328,54264,6,0,L|232:368,11,35
272,56,54534,2,0,L|280:-8,10,35
96,80,54827,6,0,L|96:168,6,70
96,288,55232,6,0,L|96:200,6,70
192,96,55638,6,0,L|192:184,6,70
304,264,55953,6,0,L|320:216,6,35
288,176,56111,6,0,L|256:224,6,35
288,96,56269,6,0,L|320:144,9,35
352,88,56471,6,0,L|320:40,10,35
376,96,56719,6,0,L|424:96,11,35
304,32,56989,6,0,L|176:400,2,385
304,32,57530,6,0,L|40:352,2,385
208,32,58070,6,0,L|312:432,2,385
304,32,58611,6,0,L|40:352,2,385
208,24,59151,6,0,L|304:400,2,385
208,32,59692,6,0,L|472:352,2,385
64,192,60277,5,0,0:0:0:0:
448,192,60457,1,0,0:0:0:0:
448,192,60660,1,0,0:0:0:0:
64,192,60818,1,0,0:0:0:0:
64,192,60976,5,0,0:0:0:0:
64,192,61021,1,0,0:0:0:0:
64,192,61133,5,0,0:0:0:0:
64,192,61178,1,0,0:0:0:0:
160,160,61358,6,0,L|248:80,4,105
272,96,61674,2,0,L|264:224,5,105
256,32,62124,5,0,0:0:0:0:
256,352,62259,1,0,0:0:0:0:
376,192,62372,6,0,B|392:152|392:152|360:128|360:128|392:96|392:96|392:96,5,105
376,192,62800,6,0,B|392:232|392:232|360:256|360:256|392:288|392:288|392:288,5,105
368,88,63160,5,0,0:0:0:0:
152,240,63250,1,0,0:0:0:0:
16,368,63385,1,0,0:0:0:0:
256,72,63543,6,0,B|216:56|216:56|192:88|192:88|160:56|160:56|160:56,5,105
256,72,63971,6,0,B|296:56|296:56|320:88|320:88|352:56|352:56|352:56,5,105
256,72,64354,5,0,0:0:0:0:
256,344,64467,1,0,0:0:0:0:
256,224,64602,6,0,L|256:168,14,35
224,160,64939,2,0,L|224:112,12,35
208,88,65232,6,0,L|144:72,13,35
168,120,65548,2,0,L|168:168,7,35
256,192,65728,12,0,66133,0:0:0:0:
256,192,66156,12,0,66809,0:0:0:0:
256,192,66831,12,0,67304,0:0:0:0:
256,192,67327,5,0,0:0:0:0:
184,128,67462,5,0,0:0:0:0:
360,272,67620,1,0,0:0:0:0:
56,344,67755,5,0,0:0:0:0:
192,208,67890,6,0,L|240:144,8,70
208,304,68318,2,0,L|256:232,8,70
392,176,68746,6,0,L|456:224,8,70
296,192,69151,2,0,L|368:240,8,70
224,168,69579,5,0,0:0:0:0:
184,136,69602,1,0,0:0:0:0:
136,136,69624,1,0,0:0:0:0:
104,176,69647,1,0,0:0:0:0:
128,224,69669,1,0,0:0:0:0:
120,272,69692,1,0,0:0:0:0:
144,320,69714,5,0,0:0:0:0:
176,344,69737,1,0,0:0:0:0:
224,336,69759,1,0,0:0:0:0:
272,304,69782,1,0,0:0:0:0:
312,264,69804,1,0,0:0:0:0:
320,208,69827,1,0,0:0:0:0:
304,160,69849,1,0,0:0:0:0:
280,112,69872,5,0,0:0:0:0:
296,64,69894,1,0,0:0:0:0:
256,24,69917,1,0,0:0:0:0:
208,32,69940,1,0,0:0:0:0:
168,56,69962,2,0,L|112:80,5,35
88,112,70120,6,0,L|88:200,6,70
184,280,70480,2,0,L|184:184,6,70
288,160,70885,2,0,L|288:64,6,70
184,280,71246,2,0,L|184:184,9,70
176,128,71719,6,0,L|192:88,6,35
352,80,71967,2,0,L|360:16,8,35
280,328,72214,6,0,B|328:336|328:336|336:304,7,70
384,256,72642,2,0,B|376:208|376:208|408:200,7,70
369,135,73070,6,0,B|340:175|340:175|312:158,7,70
244,158,73476,2,0,B|216:118|216:118|188:135,7,70
256,200,73858,6,0,L|256:240,1,35
254,199,73903,6,0,L|247:239,1,35
253,199,73948,6,0,L|239:237,1,35
252,198,73993,6,0,L|232:233,1,35
252,198,74039,6,0,L|232:233,1,35
250,198,74084,6,0,L|225:228,1,35
249,197,74129,6,0,L|219:222,1,35
249,196,74174,6,0,L|214:216,1,35
248,194,74219,6,0,L|210:208,1,35
248,193,74264,6,0,L|208:200,1,35
248,192,74309,6,0,L|208:192,1,35
248,190,74354,6,0,L|208:183,1,35
168,112,74467,6,0,P|144:32|136:24,6,70
112,176,74827,6,0,P|136:256|144:264,6,70
168,112,75255,6,0,P|144:32|136:24,6,70
184,160,75570,6,0,L|248:144,6,35
248,120,75728,2,0,L|192:112,8,35
232,72,75930,6,0,L|272:64,8,35
368,40,76133,2,0,L|312:32,10,35
448,264,76584,6,0,L|448:168,6,70
336,192,76899,1,0,0:0:0:0:
448,120,77034,6,0,L|448:216,6,70
336,192,77349,1,0,0:0:0:0:
64,264,77439,6,0,L|64:168,6,70
224,312,77755,1,0,0:0:0:0:
64,120,77845,6,0,L|64:216,6,70
160,96,78160,1,0,0:0:0:0:
208,192,78273,6,0,L|256:192|248:192,9,35
304,192,78498,6,0,L|256:192|264:192,11,35
448,264,78791,6,0,L|448:168,6,70
368,192,79106,1,0,0:0:0:0:
448,120,79219,6,0,L|448:216,6,70
344,192,79534,1,0,0:0:0:0:
64,264,79647,6,0,L|64:168,6,70
200,312,79962,1,0,0:0:0:0:
64,120,80030,6,0,L|64:216,1,70
112,184,80142,2,0,L|200:136,1,70
312,96,80300,1,0,0:0:0:0:
208,192,80457,6,0,L|256:192|248:192,7,35
304,192,80728,6,0,L|256:192|264:192,11,35
347,375,80998,6,0,L|412:305,6,70
296,230,81313,1,0,0:0:0:0:
445,270,81381,6,0,L|380:340,6,70
296,230,81696,1,0,0:0:0:0:
66,113,81809,6,0,L|131:43,6,70
150,257,82124,1,0,0:0:0:0:
164,8,82214,6,0,L|99:78,6,70
344,143,82530,1,0,0:0:0:0:
200,336,82642,6,0,L|232:296,3,35
264,280,82732,2,0,L|232:240,3,35,0|0|0|0,0:0|0:0|0:0|0:0,0:0:0:0:
200,216,82822,6,0,L|232:176,3,35
264,160,82912,2,0,L|232:120,3,35,0|0|0|0,0:0|0:0|0:0|0:0,0:0:0:0:
208,104,83003,2,0,L|240:64,6,35
360,320,83183,5,0,0:0:0:0:
384,272,83250,1,0,0:0:0:0:
384,216,83318,1,0,0:0:0:0:
360,176,83385,1,0,0:0:0:0:
376,128,83453,1,0,0:0:0:0:
152,64,83566,5,0,0:0:0:0:
128,112,83634,1,0,0:0:0:0:
128,168,83701,1,0,0:0:0:0:
152,208,83769,1,0,0:0:0:0:
136,256,83836,1,0,0:0:0:0:
384,80,83971,5,0,0:0:0:0:
328,128,84039,1,0,0:0:0:0:
272,168,84106,1,0,0:0:0:0:
232,120,84174,1,0,0:0:0:0:
200,72,84196,2,0,L|176:40,8,35
152,32,84399,2,0,P|112:56|104:56,7,35
40,112,84602,6,0,L|80:160,7,35
96,192,84782,2,0,L|64:240,3,35
80,272,84872,6,0,L|144:272,1,35
256,192,85212,12,4,85369,0:0:0:0:
256,192,85392,12,0,86428,0:0:0:0:
256,192,86698,5,0,0:0:0:0:
16,192,90820,5,0,0:0:0:0:
496,192,91090,1,0,0:0:0:0:
208,352,95144,6,0,L|336:-16,2,385
208,352,95685,6,0,L|472:32,2,385
304,352,96225,6,0,L|200:-48,2,385
208,352,96766,6,0,L|472:32,2,385
304,360,97306,6,0,L|208:-16,2,385
304,352,97847,6,0,L|40:32,2,385
96,144,98387,6,0,L|416:408,2,385
120,40,98928,6,0,L|324:401,2,385
416,96,99558,6,0,P|456:128|432:192,4,105
432,252,99941,6,0,P|433:304|369:326,5,105
296,312,100347,1,0,0:0:0:0:
72,200,100482,1,0,0:0:0:0:
88,72,100617,6,0,L|168:160,4,105
176,168,100955,6,0,L|256:256,4,105
320,152,101315,1,0,0:0:0:0:
200,96,101450,1,0,0:0:0:0:
392,56,101585,1,0,0:0:0:0:
96,264,101721,5,0,0:0:0:0:
144,288,101788,1,0,0:0:0:0:
192,272,101856,1,0,0:0:0:0:
224,232,101923,1,0,0:0:0:0:
480,184,101991,1,0,0:0:0:0:
336,320,102148,5,0,0:0:0:0:
368,272,102216,1,0,0:0:0:0:
408,240,102284,1,0,0:0:0:0:
456,248,102351,1,0,0:0:0:0:
40,336,102419,1,0,0:0:0:0:
256,192,102509,12,0,102779,0:0:0:0:
456,120,102802,6,0,L|400:136,23,35
56,120,103365,6,0,L|112:136,27,35
256,192,103995,12,0,104468,0:0:0:0:
256,192,104491,12,0,105054,0:0:0:0:
256,192,105076,12,0,105257,0:0:0:0:
256,192,105279,12,0,105527,0:0:0:0:
256,192,105549,12,0,105797,0:0:0:0:
128,96,106067,6,0,B|88:128|88:128|120:160|120:160|88:168,4,105
224,136,106383,1,0,0:0:0:0:
320,240,106495,6,0,B|360:272|360:272|328:304|328:304|360:312,4,105
256,280,106811,1,0,0:0:0:0:
261,38,106923,6,0,B|214:16|214:16|199:58|199:58|178:33,4,105
267,142,107239,1,0,0:0:0:0:
374,268,107350,6,0,B|362:317|362:317|319:303|319:303|326:335,4,105
296,200,107666,1,0,0:0:0:0:
96,80,107757,6,0,L|80:112,9,35
152,192,108004,2,0,L|120:224,12,35
64,328,108320,5,0,0:0:0:0:
96,296,108388,1,0,0:0:0:0:
128,264,108455,1,0,0:0:0:0:
160,224,108523,1,0,0:0:0:0:
192,184,108590,1,0,0:0:0:0:
29,254,108702,5,0,0:0:0:0:
70,235,108770,1,0,0:0:0:0:
111,215,108837,1,0,0:0:0:0:
154,189,108905,1,0,0:0:0:0:
198,162,108972,1,0,0:0:0:0:
21,172,109085,5,0,0:0:0:0:
66,168,109153,1,0,0:0:0:0:
111,164,109220,1,0,0:0:0:0:
161,154,109288,1,0,0:0:0:0:
212,144,109355,1,0,0:0:0:0:
42,93,109467,5,0,0:0:0:0:
85,105,109535,1,0,0:0:0:0:
129,117,109602,1,0,0:0:0:0:
180,124,109670,1,0,0:0:0:0:
230,132,109737,1,0,0:0:0:0:
80,32,109896,6,0,L|104:72,9,35
144,8,110144,6,0,L|168:48,10,35
448,56,110437,5,0,0:0:0:0:
416,88,110505,1,0,0:0:0:0:
384,120,110572,1,0,0:0:0:0:
352,160,110640,1,0,0:0:0:0:
320,200,110707,1,0,0:0:0:0:
482,129,110819,5,0,0:0:0:0:
441,148,110887,1,0,0:0:0:0:
400,168,110954,1,0,0:0:0:0:
357,194,111022,1,0,0:0:0:0:
313,221,111089,1,0,0:0:0:0:
490,211,111202,5,0,0:0:0:0:
445,215,111270,1,0,0:0:0:0:
400,219,111337,1,0,0:0:0:0:
350,229,111405,1,0,0:0:0:0:
299,239,111472,1,0,0:0:0:0:
469,290,111584,5,0,0:0:0:0:
426,278,111652,1,0,0:0:0:0:
382,266,111719,1,0,0:0:0:0:
331,259,111787,1,0,0:0:0:0:
281,251,111854,1,0,0:0:0:0:
328,344,112058,6,0,L|288:312,23,35
120,72,112644,5,0,0:0:0:0:
152,104,112712,1,0,0:0:0:0:
184,136,112779,1,0,0:0:0:0:
224,168,112847,1,0,0:0:0:0:
264,200,112914,1,0,0:0:0:0:
193,37,113026,5,0,0:0:0:0:
212,78,113094,1,0,0:0:0:0:
232,119,113161,1,0,0:0:0:0:
258,162,113229,1,0,0:0:0:0:
285,206,113296,1,0,0:0:0:0:
275,29,113409,5,0,0:0:0:0:
279,74,113477,1,0,0:0:0:0:
283,119,113544,1,0,0:0:0:0:
293,169,113612,1,0,0:0:0:0:
303,220,113679,1,0,0:0:0:0:
256,336,113725,6,0,L|256:296,8,35
200,296,113928,2,0,L|216:256,5,35
232,208,114063,6,0,L|200:160,11,35
152,160,114333,2,0,L|168:104,10,35
400,272,114693,5,0,0:0:0:0:
80,304,114829,6,0,L|96:216,5,70
168,240,115099,1,0,0:0:0:0:
136,152,115212,6,0,L|152:64,5,70
224,88,115482,1,0,0:0:0:0:
80,304,115594,6,0,L|96:216,5,70
24,224,115864,1,0,0:0:0:0:
136,152,116022,6,0,L|152:64,5,70
80,72,116292,1,0,0:0:0:0:
24,352,116450,6,0,L|72:328,12,35
488,32,116743,6,0,L|440:56,11,35
432,304,117036,6,0,L|416:216,5,70
344,240,117306,1,0,0:0:0:0:
376,152,117419,6,0,L|360:64,5,70
288,88,117689,1,0,0:0:0:0:
432,304,117801,6,0,L|416:216,5,70
488,224,118071,1,0,0:0:0:0:
376,152,118184,6,0,L|360:64,5,70
432,72,118454,1,0,0:0:0:0:
216,24,118635,6,0,L|272:24,9,35
288,88,118883,2,0,L|280:144,8,35
112,328,119130,6,0,L|176:288,5,70
176,240,119400,1,0,0:0:0:0:
264,272,119558,6,0,L|336:224,5,70
328,184,119828,1,0,0:0:0:0:
376,136,119964,6,0,L|432:208,5,70
456,192,120234,1,0,0:0:0:0:
264,272,120392,6,0,L|312:336,5,70
344,328,120661,1,0,0:0:0:0:
424,328,120775,6,0,L|448:272,12,35
400,208,121090,2,0,L|392:256,10,35
32,264,121360,5,0,0:0:0:0:
80,240,121427,1,0,0:0:0:0:
128,216,121495,1,0,0:0:0:0:
432,112,121562,1,0,0:0:0:0:
432,112,121630,1,0,0:0:0:0:
480,264,121766,5,0,0:0:0:0:
432,240,121833,1,0,0:0:0:0:
384,216,121901,1,0,0:0:0:0:
80,112,121968,1,0,0:0:0:0:
80,112,122036,1,0,0:0:0:0:
480,264,122148,5,0,0:0:0:0:
432,240,122215,1,0,0:0:0:0:
384,216,122283,1,0,0:0:0:0:
80,112,122350,1,0,0:0:0:0:
216,136,122441,38,0,L|248:176,8,35
240,224,122644,2,0,L|208:256,7,35
224,304,122824,2,0,L|288:304,7,35
240,352,123004,2,0,P|352:320|240:48,1,490
272,48,123342,2,0,L|272:368,1,315
256,192,123545,12,4,124784,0:0:0:0:
