osu file format v12

[General]
AudioFilename: The Quick Brown Fox - Serious Shit.mp3
AudioLeadIn: 0
PreviewTime: -1
Countdown: 1
SampleSet: None
StackLeniency: 0.7
Mode: 0
LetterboxInBreaks: 1

[Editor]
DistanceSpacing: 0.6
BeatDivisor: 2
GridSize: 4

[Metadata]
Title:Serious Shit
TitleUnicode:Serious Shit
Artist:The Quick Brown Fox
ArtistUnicode:The Quick Brown Fox
Creator:Cookiezi
Version:
Source:
Tags:
BeatmapID:257932
BeatmapSetID:96167

[Difficulty]
HPDrainRate:0
CircleSize:4
OverallDifficulty:10
ApproachRate:10
SliderMultiplier:1.4
SliderTickRate:1

[Events]
//Background and Video events
0,0,"LAPFOX-lapfox-30664664-904-6282.jpg",0,0
//Break Periods
2,34826,44741
//Storyboard Layer 0 (Background)
//Storyboard Layer 1 (Fail)
//Storyboard Layer 2 (Pass)
//Storyboard Layer 3 (Foreground)
//Storyboard Sound Samples
//Background Colour Transformations
3,100,163,162,255

[TimingPoints]
9713,130.434782608696,4,1,0,100,1,0
11213,-50,4,1,0,100,0,0
28495,-50,4,1,0,100,0,1
45191,-200,4,1,0,100,0,0

[Colours]
Combo1 : 36,36,36
Combo2 : 138,0,0

[HitObjects]
40,40,9713,1,0,0:0:0:0:
84,96,9778,1,0,0:0:0:0:
140,144,9843,1,0,0:0:0:0:
212,168,9908,1,0,0:0:0:0:
276,136,9973,1,0,0:0:0:0:
348,120,10039,1,0,0:0:0:0:
416,152,10104,1,0,0:0:0:0:
448,216,10169,1,0,0:0:0:0:
448,288,10234,5,0,0:0:0:0:
408,348,10299,1,0,0:0:0:0:
332,344,10365,1,0,0:0:0:0:
284,288,10430,1,0,0:0:0:0:
240,232,10495,1,0,0:0:0:0:
248,160,10560,1,0,0:0:0:0:
220,88,10626,1,0,0:0:0:0:
152,64,10691,1,0,0:0:0:0:
84,96,10756,5,0,0:0:0:0:
48,160,10821,1,0,0:0:0:0:
36,232,10886,1,0,0:0:0:0:
52,304,10952,1,0,0:0:0:0:
116,340,11017,1,0,0:0:0:0:
184,312,11082,1,0,0:0:0:0:
248,272,11147,1,0,0:0:0:0:
324,268,11213,1,0,0:0:0:0:
400,292,11278,6,0,L|460:252,15,70
400,216,11799,5,0,0:0:0:0:
416,144,11865,1,0,0:0:0:0:
380,84,11930,1,0,0:0:0:0:
312,52,11995,1,0,0:0:0:0:
244,56,12060,1,0,0:0:0:0:
188,96,12126,1,0,0:0:0:0:
164,160,12191,1,0,0:0:0:0:
172,232,12256,1,0,0:0:0:0:
212,296,12321,5,0,0:0:0:0:
272,336,12386,1,0,0:0:0:0:
332,300,12452,1,0,0:0:0:0:
344,228,12517,1,0,0:0:0:0:
296,180,12582,1,0,0:0:0:0:
224,160,12647,1,0,0:0:0:0:
160,196,12713,1,0,0:0:0:0:
112,248,12778,1,0,0:0:0:0:
68,244,12843,6,0,L|32:96,1,140
64,140,12908,6,0,L|140:12,1,140
144,68,12973,6,0,L|280:20,1,140
244,56,13039,6,0,L|396:72,1,140
340,112,13104,6,0,L|476:192,1,140
400,216,13169,6,0,L|476:336,1,140
416,344,13234,6,0,L|252:380,1,140
248,312,13299,6,0,L|152:192,1,140
240,208,13365,6,0,L|288:48,1,140
220,96,13430,6,0,L|92:8,1,140
112,76,13495,6,0,L|-32:128,1,140
28,164,13560,6,0,L|-16:304,1,140
44,296,13626,6,0,L|160:392,1,140
176,336,13691,6,0,L|352:308,1,140
288,264,13756,6,0,L|380:132,1,140
424,108,13886,5,0,0:0:0:0:
384,44,13952,1,0,0:0:0:0:
312,24,14017,1,0,0:0:0:0:
236,24,14082,1,0,0:0:0:0:
172,72,14147,1,0,0:0:0:0:
168,144,14213,1,0,0:0:0:0:
192,212,14278,1,0,0:0:0:0:
168,280,14343,1,0,0:0:0:0:
112,328,14408,5,0,0:0:0:0:
40,344,14473,1,0,0:0:0:0:
0,280,14539,1,0,0:0:0:0:
24,208,14604,1,0,0:0:0:0:
96,200,14669,1,0,0:0:0:0:
168,192,14734,1,0,0:0:0:0:
200,128,14799,1,0,0:0:0:0:
256,76,14865,1,0,0:0:0:0:
328,52,14930,5,0,0:0:0:0:
392,88,14995,1,0,0:0:0:0:
420,156,15060,1,0,0:0:0:0:
392,224,15126,1,0,0:0:0:0:
320,232,15191,1,0,0:0:0:0:
256,264,15256,1,0,0:0:0:0:
232,332,15321,1,0,0:0:0:0:
292,368,15386,1,0,0:0:0:0:
364,344,15452,6,0,L|424:304,15,70
456,240,15973,1,0,0:0:0:0:
460,164,16039,1,0,0:0:0:0:
428,92,16104,1,0,0:0:0:0:
356,68,16169,1,0,0:0:0:0:
288,88,16234,1,0,0:0:0:0:
240,144,16299,1,0,0:0:0:0:
172,164,16365,1,0,0:0:0:0:
112,128,16430,5,0,0:0:0:0:
44,152,16495,1,0,0:0:0:0:
24,220,16560,1,0,0:0:0:0:
32,292,16626,1,0,0:0:0:0:
88,336,16691,1,0,0:0:0:0:
160,324,16756,1,0,0:0:0:0:
224,284,16821,1,0,0:0:0:0:
296,304,16886,1,0,0:0:0:0:
356,264,16952,5,0,0:0:0:0:
372,236,17017,1,0,0:0:0:0:
384,208,17082,1,0,0:0:0:0:
384,176,17147,1,0,0:0:0:0:
376,144,17213,1,0,0:0:0:0:
360,116,17278,1,0,0:0:0:0:
336,96,17343,1,0,0:0:0:0:
304,88,17408,1,0,0:0:0:0:
256,88,17539,5,0,0:0:0:0:
256,172,17604,1,0,0:0:0:0:
256,256,17669,1,0,0:0:0:0:
224,340,17734,1,0,0:0:0:0:
144,360,17799,1,0,0:0:0:0:
80,304,17865,1,0,0:0:0:0:
56,228,17930,1,0,0:0:0:0:
76,152,17995,1,0,0:0:0:0:
24,72,18060,6,0,L|156:12,1,140
56,72,18126,2,0,L|196:40,1,140
88,72,18191,2,0,L|288:64,1,140
116,96,18256,2,0,L|276:120,1,140
152,128,18321,2,0,L|296:176,1,140
172,172,18386,2,0,L|276:296,1,140
160,224,18452,2,0,L|204:368,1,140
128,264,18517,2,0,L|68:392,1,140
80,304,18582,6,0,L|-128:344,1,140
64,264,18647,2,0,L|-32:160,1,140
96,216,18713,2,0,L|132:40,1,140
144,184,18778,2,0,L|260:76,1,140
200,196,18843,2,0,L|432:148,1,140
200,252,18908,2,0,L|380:288,1,140
168,296,18973,2,0,L|324:380,1,140
128,320,19039,2,0,L|32:152,1,140
112,156,19104,6,0,L|196:16,1,140
216,80,19169,2,0,L|384:44,1,140
344,112,19234,2,0,L|472:192,1,140
464,232,19299,2,0,L|300:168,1,140
336,248,19365,2,0,L|164:252,1,140
228,316,19430,2,0,L|92:356,1,140
48,320,19495,2,0,L|68:180,1,140
20,204,19560,2,0,L|176:24,1,140
192,136,19626,5,0,0:0:0:0:
232,28,19691,1,0,0:0:0:0:
268,136,19756,1,0,0:0:0:0:
312,28,19821,1,0,0:0:0:0:
344,136,19886,1,0,0:0:0:0:
388,28,19952,1,0,0:0:0:0:
420,136,20017,1,0,0:0:0:0:
464,28,20082,1,0,0:0:0:0:
500,116,20147,5,0,0:0:0:0:
448,204,20213,1,0,0:0:0:0:
376,292,20278,1,0,0:0:0:0:
280,308,20343,1,0,0:0:0:0:
220,216,20408,1,0,0:0:0:0:
156,144,20473,1,0,0:0:0:0:
48,140,20539,1,0,0:0:0:0:
16,256,20604,1,0,0:0:0:0:
96,360,20669,5,0,0:0:0:0:
240,368,20734,1,0,0:0:0:0:
416,336,20799,1,0,0:0:0:0:
460,160,20865,1,0,0:0:0:0:
324,56,20930,1,0,0:0:0:0:
88,64,20995,1,0,0:0:0:0:
48,320,21060,1,0,0:0:0:0:
344,364,21126,1,0,0:0:0:0:
360,188,21191,5,0,0:0:0:0:
208,108,21256,1,0,0:0:0:0:
168,284,21321,1,0,0:0:0:0:
324,264,21386,1,0,0:0:0:0:
304,128,21452,1,0,0:0:0:0:
188,180,21517,1,0,0:0:0:0:
232,272,21582,1,0,0:0:0:0:
316,200,21647,1,0,0:0:0:0:
252,180,21713,5,0,0:0:0:0:
252,224,21778,1,0,0:0:0:0:
284,204,21843,1,0,0:0:0:0:
248,96,21908,1,0,0:0:0:0:
176,328,21973,1,0,0:0:0:0:
440,256,22039,1,0,0:0:0:0:
92,160,22104,1,0,0:0:0:0:
288,336,22169,1,0,0:0:0:0:
416,72,22234,5,0,0:0:0:0:
132,32,22299,1,0,0:0:0:0:
376,312,22365,1,0,0:0:0:0:
280,20,22430,1,0,0:0:0:0:
92,276,22495,1,0,0:0:0:0:
448,196,22560,1,0,0:0:0:0:
324,160,22626,1,0,0:0:0:0:
164,148,22691,1,0,0:0:0:0:
172,232,22756,5,0,0:0:0:0:
352,232,22821,1,0,0:0:0:0:
112,216,22886,1,0,0:0:0:0:
256,180,22952,1,0,0:0:0:0:
324,104,23017,1,0,0:0:0:0:
168,68,23082,1,0,0:0:0:0:
52,212,23147,1,0,0:0:0:0:
44,80,23213,1,0,0:0:0:0:
212,280,23278,5,0,0:0:0:0:
52,336,23343,1,0,0:0:0:0:
220,360,23408,1,0,0:0:0:0:
400,148,23473,1,0,0:0:0:0:
256,288,23539,1,0,0:0:0:0:
472,336,23604,1,0,0:0:0:0:
428,288,23669,1,0,0:0:0:0:
464,120,23734,1,0,0:0:0:0:
88,112,23799,5,0,0:0:0:0:
140,320,23865,1,0,0:0:0:0:
344,336,23930,1,0,0:0:0:0:
256,240,23995,1,0,0:0:0:0:
420,56,24060,1,0,0:0:0:0:
304,28,24126,1,0,0:0:0:0:
456,232,24191,1,0,0:0:0:0:
132,160,24256,1,0,0:0:0:0:
132,248,24321,5,0,0:0:0:0:
316,216,24386,1,0,0:0:0:0:
224,88,24452,1,0,0:0:0:0:
356,272,24517,1,0,0:0:0:0:
72,268,24582,1,0,0:0:0:0:
344,124,24647,1,0,0:0:0:0:
168,28,24713,1,0,0:0:0:0:
192,156,24778,1,0,0:0:0:0:
16,192,24843,5,0,0:0:0:0:
496,168,24908,1,0,0:0:0:0:
16,264,24973,1,0,0:0:0:0:
480,88,25039,1,0,0:0:0:0:
44,336,25104,1,0,0:0:0:0:
416,20,25169,1,0,0:0:0:0:
120,364,25234,1,0,0:0:0:0:
344,24,25299,1,0,0:0:0:0:
208,360,25365,5,0,0:0:0:0:
272,60,25430,1,0,0:0:0:0:
284,368,25495,1,0,0:0:0:0:
212,120,25560,1,0,0:0:0:0:
328,304,25626,1,0,0:0:0:0:
184,192,25691,1,0,0:0:0:0:
352,228,25756,1,0,0:0:0:0:
60,372,25820,1,0,0:0:0:0:
432,72,25886,1,0,0:0:0:0:
160,376,25952,1,0,0:0:0:0:
344,60,26017,1,0,0:0:0:0:
248,368,26082,1,0,0:0:0:0:
236,72,26147,1,0,0:0:0:0:
356,348,26213,1,0,0:0:0:0:
136,100,26278,1,0,0:0:0:0:
416,268,26343,1,0,0:0:0:0:
76,196,26408,1,0,0:0:0:0:
20,24,27973,5,0,0:0:0:0:
0,0,28039,1,0,0:0:0:0:
492,24,28103,5,0,0:0:0:0:
512,0,28169,1,0,0:0:0:0:
20,360,28233,5,0,0:0:0:0:
0,384,28299,1,0,0:0:0:0:
492,360,28364,5,0,0:0:0:0:
512,384,28430,1,0,0:0:0:0:
144,280,28495,5,0,0:0:0:0:
360,304,28560,1,0,0:0:0:0:
368,104,28626,1,0,0:0:0:0:
136,100,28691,1,0,0:0:0:0:
172,304,28756,1,0,0:0:0:0:
400,272,28821,1,0,0:0:0:0:
336,68,28886,1,0,0:0:0:0:
120,140,28952,1,0,0:0:0:0:
224,332,29017,5,0,0:0:0:0:
436,224,29082,1,0,0:0:0:0:
288,32,29147,1,0,0:0:0:0:
96,188,29213,1,0,0:0:0:0:
272,352,29278,1,0,0:0:0:0:
452,188,29343,1,0,0:0:0:0:
260,52,29408,1,0,0:0:0:0:
116,224,29473,1,0,0:0:0:0:
292,320,29539,5,0,0:0:0:0:
420,160,29604,1,0,0:0:0:0:
264,96,29669,1,0,0:0:0:0:
152,208,29734,1,0,0:0:0:0:
284,284,29799,1,0,0:0:0:0:
368,168,29865,1,0,0:0:0:0:
204,200,29930,1,0,0:0:0:0:
276,240,29995,1,0,0:0:0:0:
320,180,30060,5,0,0:0:0:0:
264,152,30126,1,0,0:0:0:0:
260,200,30191,1,0,0:0:0:0:
44,40,30256,1,0,0:0:0:0:
464,352,30321,1,0,0:0:0:0:
24,352,30386,1,0,0:0:0:0:
456,12,30452,1,0,0:0:0:0:
144,280,30582,5,0,0:0:0:0:
360,304,30647,1,0,0:0:0:0:
368,104,30713,1,0,0:0:0:0:
136,100,30778,1,0,0:0:0:0:
172,304,30843,1,0,0:0:0:0:
400,272,30908,1,0,0:0:0:0:
336,68,30973,1,0,0:0:0:0:
120,140,31039,1,0,0:0:0:0:
224,332,31104,5,0,0:0:0:0:
144,280,31169,5,0,0:0:0:0:
360,304,31234,1,0,0:0:0:0:
368,104,31300,1,0,0:0:0:0:
136,100,31365,1,0,0:0:0:0:
172,304,31430,1,0,0:0:0:0:
400,272,31495,1,0,0:0:0:0:
336,68,31560,1,0,0:0:0:0:
120,140,31626,1,0,0:0:0:0:
224,332,31691,5,0,0:0:0:0:
144,280,31756,5,0,0:0:0:0:
360,304,31821,1,0,0:0:0:0:
368,104,31887,1,0,0:0:0:0:
136,100,31952,1,0,0:0:0:0:
172,304,32017,1,0,0:0:0:0:
400,272,32082,1,0,0:0:0:0:
336,68,32147,1,0,0:0:0:0:
120,140,32213,1,0,0:0:0:0:
224,332,32278,5,0,0:0:0:0:
144,280,32343,5,0,0:0:0:0:
360,304,32408,1,0,0:0:0:0:
368,104,32474,1,0,0:0:0:0:
136,100,32539,1,0,0:0:0:0:
172,304,32604,1,0,0:0:0:0:
400,272,32669,1,0,0:0:0:0:
336,68,32734,1,0,0:0:0:0:
120,140,32800,1,0,0:0:0:0:
224,332,32865,5,0,0:0:0:0:
144,280,32930,5,0,0:0:0:0:
360,304,32995,1,0,0:0:0:0:
368,104,33061,1,0,0:0:0:0:
136,100,33126,1,0,0:0:0:0:
172,304,33191,1,0,0:0:0:0:
400,272,33256,1,0,0:0:0:0:
336,68,33321,1,0,0:0:0:0:
120,140,33387,1,0,0:0:0:0:
224,332,33452,5,0,0:0:0:0:
144,280,33517,5,0,0:0:0:0:
360,304,33582,1,0,0:0:0:0:
368,104,33648,1,0,0:0:0:0:
136,100,33713,1,0,0:0:0:0:
172,304,33778,1,0,0:0:0:0:
400,272,33843,1,0,0:0:0:0:
336,68,33908,1,0,0:0:0:0:
120,140,33974,1,0,0:0:0:0:
224,332,34039,5,0,0:0:0:0:
144,280,34104,5,0,0:0:0:0:
360,304,34169,1,0,0:0:0:0:
368,104,34235,1,0,0:0:0:0:
136,100,34300,1,0,0:0:0:0:
172,304,34365,1,0,0:0:0:0:
400,272,34430,1,0,0:0:0:0:
336,68,34495,1,0,0:0:0:0:
120,140,34561,1,0,0:0:0:0:
224,332,34626,5,0,0:0:0:0:
220,36,45191,6,0,B|136:32|72:44|44:104|36:144|32:200|44:256|64:300|88:324|128:340|164:352|200:364|232:368|280:368|344:364|404:348|436:332|456:320|468:296|480:272|488:224|484:176|472:140|452:100|436:68|408:44|388:28|372:24|324:16|292:28|280:40,1,1120
292,36,47278,6,0,B|376:32|440:44|468:104|476:144|480:200|468:256|448:300|424:324|384:340|348:352|312:364|280:368|232:368|168:364|108:348|76:332|56:320|44:296|32:272|24:224|28:176|40:140|60:100|76:68|104:44|124:28|140:24|188:16|220:28|232:40,1,1120
220,36,49365,6,0,B|136:32|72:44|44:104|36:144|32:200|44:256|64:300|88:324|128:340|164:352|200:364|232:368|280:368|344:364|404:348|436:332|456:320|468:296|480:272|488:224|484:176|472:140|452:100|436:68|408:44|388:28|372:24|324:16|292:28|280:40,1,1120
292,36,51452,6,0,B|376:32|440:44|468:104|476:144|480:200|468:256|448:300|424:324|384:340|348:352|312:364|280:368|232:368|168:364|108:348|76:332|56:320|44:296|32:272|24:224|28:176|40:140|60:100|76:68|104:44|124:28|140:24|188:16|220:28|232:40,1,1120
220,348,53539,6,0,B|136:352|72:340|44:280|36:240|32:184|44:128|64:84|88:60|128:44|164:32|200:20|232:16|280:16|344:20|404:36|436:52|456:64|468:88|480:112|488:160|484:208|472:244|452:284|436:316|408:340|388:356|372:360|324:368|292:356|280:344,1,1120
292,348,55626,6,0,B|376:352|440:340|468:280|476:240|480:184|468:128|448:84|424:60|384:44|348:32|312:20|280:16|232:16|168:20|108:36|76:52|56:64|44:88|32:112|24:160|28:208|40:244|60:284|76:316|104:340|124:356|140:360|188:368|220:356|232:344,1,1120
412,156,57713,6,0,B|416:72|404:8|344:-20|304:-28|248:-32|192:-20|148:0|124:24|108:64|96:100|84:136|80:168|80:216|84:280|100:340|116:372|128:392|152:404|176:416|224:424|272:420|308:408|348:388|380:372|404:344|420:324|424:308|432:260|420:228|408:216,1,1120
100,228,59799,6,0,B|96:312|108:376|168:404|208:412|264:416|320:404|364:384|388:360|404:320|416:284|428:248|432:216|432:168|428:104|412:44|396:12|384:-8|360:-20|336:-32|288:-40|240:-36|204:-24|164:-4|132:12|108:40|92:60|88:76|80:124|92:156|104:168,1,1120
44,24,62408,1,0,0:0:0:0:
460,76,62473,1,0,0:0:0:0:
28,104,62539,1,0,0:0:0:0:
472,160,62604,1,0,0:0:0:0:
32,184,62669,1,0,0:0:0:0:
480,248,62734,1,0,0:0:0:0:
32,268,62799,1,0,0:0:0:0:
484,320,62865,1,0,0:0:0:0:
220,36,62930,6,0,B|136:32|72:44|44:104|36:144|32:200|44:256|64:300|88:324|128:340|164:352|200:364|232:368|280:368|344:364|404:348|436:332|456:320|468:296|480:272|488:224|484:176|472:140|452:100|436:68|408:44|388:28|372:24|324:16|292:28|280:40,1,1120
220,36,63452,6,0,B|136:32|72:44|44:104|36:144|32:200|44:256|64:300|88:324|128:340|164:352|200:364|232:368|280:368|344:364|404:348|436:332|456:320|468:296|480:272|488:224|484:176|472:140|452:100|436:68|408:44|388:28|372:24|324:16|292:28|280:40,1,1120
220,36,63973,6,0,B|136:32|72:44|44:104|36:144|32:200|44:256|64:300|88:324|128:340|164:352|200:364|232:368|280:368|344:364|404:348|436:332|456:320|468:296|480:272|488:224|484:176|472:140|452:100|436:68|408:44|388:28|372:24|324:16|292:28|280:40,1,1120
220,36,64495,6,0,B|136:32|72:44|44:104|36:144|32:200|44:256|64:300|88:324|128:340|164:352|200:364|232:368|280:368|344:364|404:348|436:332|456:320|468:296|480:272|488:224|484:176|472:140|452:100|436:68|408:44|388:28|372:24|324:16|292:28|280:40,1,1120
220,36,65017,6,0,B|136:32|72:44|44:104|36:144|32:200|44:256|64:300|88:324|128:340|164:352|200:364|232:368|280:368|344:364|404:348|436:332|456:320|468:296|480:272|488:224|484:176|472:140|452:100|436:68|408:44|388:28|372:24|324:16|292:28|280:40,1,1120
220,36,65539,6,0,B|136:32|72:44|44:104|36:144|32:200|44:256|64:300|88:324|128:340|164:352|200:364|232:368|280:368|344:364|404:348|436:332|456:320|468:296|480:272|488:224|484:176|472:140|452:100|436:68|408:44|388:28|372:24|324:16|292:28|280:40,1,1120
220,36,66060,6,0,B|136:32|72:44|44:104|36:144|32:200|44:256|64:300|88:324|128:340|164:352|200:364|232:368|280:368|344:364|404:348|436:332|456:320|468:296|480:272|488:224|484:176|472:140|452:100|436:68|408:44|388:28|372:24|324:16|292:28|280:40,1,1120
220,36,66582,6,0,B|136:32|72:44|44:104|36:144|32:200|44:256|64:300|88:324|128:340|164:352|200:364|232:368|280:368|344:364|404:348|436:332|456:320|468:296|480:272|488:224|484:176|472:140|452:100|436:68|408:44|388:28|372:24|324:16|292:28|280:40,1,1120
220,36,67104,6,0,B|136:32|72:44|44:104|36:144|32:200|44:256|64:300|88:324|128:340|164:352|200:364|232:368|280:368|344:364|404:348|436:332|456:320|468:296|480:272|488:224|484:176|472:140|452:100|436:68|408:44|388:28|372:24|324:16|292:28|280:40,1,1120
292,36,69191,6,0,B|376:32|440:44|468:104|476:144|480:200|468:256|448:300|424:324|384:340|348:352|312:364|280:368|232:368|168:364|108:348|76:332|56:320|44:296|32:272|24:224|28:176|40:140|60:100|76:68|104:44|124:28|140:24|188:16|220:28|232:40,1,1120
220,36,69713,6,0,B|136:32|72:44|44:104|36:144|32:200|44:256|64:300|88:324|128:340|164:352|200:364|232:368|280:368|344:364|404:348|436:332|456:320|468:296|480:272|488:224|484:176|472:140|452:100|436:68|408:44|388:28|372:24|324:16|292:28|280:40,1,1120
412,156,70234,6,0,B|416:72|404:8|344:-20|304:-28|248:-32|192:-20|148:0|124:24|108:64|96:100|84:136|80:168|80:216|84:280|100:340|116:372|128:392|152:404|176:416|224:424|272:420|308:408|348:388|380:372|404:344|420:324|424:308|432:260|420:228|408:216,1,1120
100,228,70756,6,0,B|96:312|108:376|168:404|208:412|264:416|320:404|364:384|388:360|404:320|416:284|428:248|432:216|432:168|428:104|412:44|396:12|384:-8|360:-20|336:-32|288:-40|240:-36|204:-24|164:-4|132:12|108:40|92:60|88:76|80:124|92:156|104:168,1,1120
220,348,71278,6,0,B|136:352|72:340|44:280|36:240|32:184|44:128|64:84|88:60|128:44|164:32|200:20|232:16|280:16|344:20|404:36|436:52|456:64|468:88|480:112|488:160|484:208|472:244|452:284|436:316|408:340|388:356|372:360|324:368|292:356|280:344,1,1120
292,348,71799,6,0,B|376:352|440:340|468:280|476:240|480:184|468:128|448:84|424:60|384:44|348:32|312:20|280:16|232:16|168:20|108:36|76:52|56:64|44:88|32:112|24:160|28:208|40:244|60:284|76:316|104:340|124:356|140:360|188:368|220:356|232:344,1,1120
292,348,72321,6,0,B|376:352|440:340|468:280|476:240|480:184|468:128|448:84|424:60|384:44|348:32|312:20|280:16|232:16|168:20|108:36|76:52|56:64|44:88|32:112|24:160|28:208|40:244|60:284|76:316|104:340|124:356|140:360|188:368|220:356|232:344,1,1120
220,36,72843,6,0,B|136:32|72:44|44:104|36:144|32:200|44:256|64:300|88:324|128:340|164:352|200:364|232:368|280:368|344:364|404:348|436:332|456:320|468:296|480:272|488:224|484:176|472:140|452:100|436:68|408:44|388:28|372:24|324:16|292:28|280:40,1,1120
412,156,73365,6,0,B|416:72|404:8|344:-20|304:-28|248:-32|192:-20|148:0|124:24|108:64|96:100|84:136|80:168|80:216|84:280|100:340|116:372|128:392|152:404|176:416|224:424|272:420|308:408|348:388|380:372|404:344|420:324|424:308|432:260|420:228|408:216,1,1120
100,228,75452,6,0,B|96:312|108:376|168:404|208:412|264:416|320:404|364:384|388:360|404:320|416:284|428:248|432:216|432:168|428:104|412:44|396:12|384:-8|360:-20|336:-32|288:-40|240:-36|204:-24|164:-4|132:12|108:40|92:60|88:76|80:124|92:156|104:168,1,1120
100,156,75713,6,0,B|96:72|108:8|168:-20|208:-28|264:-32|320:-20|364:0|388:24|404:64|416:100|428:136|432:168|432:216|428:280|412:340|396:372|384:392|360:404|336:416|288:424|240:420|204:408|164:388|132:372|108:344|92:324|88:308|80:260|92:228|104:216,1,1120
100,120,75778,1,0,0:0:0:0:
104,84,75843,1,0,0:0:0:0:
120,52,75908,1,0,0:0:0:0:
140,24,75973,1,0,0:0:0:0:
168,8,76039,1,0,0:0:0:0:
208,0,76104,1,0,0:0:0:0:
240,0,76169,1,0,0:0:0:0:
276,0,76234,1,0,0:0:0:0:
312,4,76299,1,0,0:0:0:0:
340,20,76365,1,0,0:0:0:0:
360,44,76430,1,0,0:0:0:0:
384,68,76495,1,0,0:0:0:0:
396,104,76560,1,0,0:0:0:0:
408,140,76626,1,0,0:0:0:0:
416,172,76691,1,0,0:0:0:0:
416,204,76756,1,0,0:0:0:0:
416,240,76821,1,0,0:0:0:0:
404,280,76886,1,0,0:0:0:0:
392,312,76952,1,0,0:0:0:0:
380,344,77017,1,0,0:0:0:0:
360,372,77082,1,0,0:0:0:0:
328,380,77147,1,0,0:0:0:0:
276,376,77213,1,0,0:0:0:0:
240,376,77278,1,0,0:0:0:0:
204,376,77343,1,0,0:0:0:0:
61,47,78060,1,0,0:0:0:0:
135,45,78321,1,0,0:0:0:0:
211,44,78582,1,0,0:0:0:0:
288,42,78843,1,0,0:0:0:0:
369,42,79104,1,0,0:0:0:0:
446,43,79365,1,0,0:0:0:0:
126,150,79626,1,0,0:0:0:0:
93,198,79886,1,0,0:0:0:0:
58,252,80147,1,0,0:0:0:0:
174,153,80408,1,0,0:0:0:0:
242,152,80669,1,0,0:0:0:0:
222,210,80930,1,0,0:0:0:0:
199,264,81191,1,0,0:0:0:0:
164,321,81452,1,0,0:0:0:0:
125,372,81713,1,0,0:0:0:0:
115,229,81973,1,0,0:0:0:0:
159,261,82234,1,0,0:0:0:0:
421,139,82495,1,0,0:0:0:0:
374,181,82756,1,0,0:0:0:0:
325,218,83017,1,0,0:0:0:0:
302,129,83278,1,0,0:0:0:0:
294,188,83539,1,0,0:0:0:0:
291,248,83799,1,0,0:0:0:0:
293,305,84060,1,0,0:0:0:0:
293,353,84321,1,0,0:0:0:0:
343,356,84582,1,0,0:0:0:0:
396,353,84843,1,0,0:0:0:0:
442,347,85104,1,0,0:0:0:0:
464,287,85365,1,0,0:0:0:0:
461,223,85495,1,0,0:0:0:0:
465,155,85626,1,0,0:0:0:0:
460,85,85756,1,0,0:0:0:0:
463,18,85886,1,0,0:0:0:0:
129,57,86017,1,0,0:0:0:0:
134,120,86147,1,0,0:0:0:0:
137,183,86278,1,0,0:0:0:0:
139,250,86408,1,0,0:0:0:0:
143,311,86539,1,0,0:0:0:0:
144,363,86669,1,0,0:0:0:0:
48,146,86799,1,0,0:0:0:0:
91,139,86930,1,0,0:0:0:0:
134,120,87060,1,0,0:0:0:0:
199,107,87191,1,0,0:0:0:0:
164,157,87321,1,0,0:0:0:0:
137,183,87452,1,0,0:0:0:0:
113,227,87582,1,0,0:0:0:0:
79,274,87713,1,0,0:0:0:0:
51,329,87843,1,0,0:0:0:0:
99,301,87973,1,0,0:0:0:0:
138,268,88104,1,0,0:0:0:0:
183,236,88234,1,0,0:0:0:0:
234,200,88365,1,0,0:0:0:0:
280,162,88495,1,0,0:0:0:0:
326,119,88626,1,0,0:0:0:0:
356,93,88756,1,0,0:0:0:0:
356,93,88821,1,0,0:0:0:0:
356,93,88886,1,0,0:0:0:0:
356,93,88952,1,0,0:0:0:0:
355,95,89017,2,0,L|356:340,1,245
321,350,89539,1,0,0:0:0:0:
288,373,89669,1,0,0:0:0:0:
252,353,89799,1,0,0:0:0:0:
247,316,89930,1,0,0:0:0:0:
283,276,90060,1,0,0:0:0:0:
330,278,90191,1,0,0:0:0:0:
375,298,90321,1,0,0:0:0:0:
405,318,90452,2,0,L|447:336,1,35
26,33,90582,1,0,0:0:0:0:
106,33,91104,1,0,0:0:0:0:
179,30,91626,1,0,0:0:0:0:
256,27,92147,1,0,0:0:0:0:
332,26,92408,1,0,0:0:0:0:
406,28,92669,1,0,0:0:0:0:
473,27,92930,1,0,0:0:0:0:
474,91,93191,1,0,0:0:0:0:
474,163,93452,1,0,0:0:0:0:
481,232,93713,1,0,0:0:0:0:
482,300,93973,1,0,0:0:0:0:
486,363,94234,1,0,0:0:0:0:
416,359,94365,1,0,0:0:0:0:
342,361,94495,1,0,0:0:0:0:
270,359,94626,1,0,0:0:0:0:
195,363,94756,1,0,0:0:0:0:
120,360,94886,1,0,0:0:0:0:
48,360,95017,1,0,0:0:0:0:
44,284,95147,1,0,0:0:0:0:
40,208,95278,1,0,0:0:0:0:
40,124,95408,1,0,0:0:0:0:
40,40,95539,1,0,0:0:0:0:
120,36,95669,1,0,0:0:0:0:
256,184,95799,1,0,0:0:0:0:
256,184,95930,1,0,0:0:0:0:
256,184,96060,1,0,0:0:0:0:
256,184,96191,1,0,0:0:0:0:
256,184,96321,1,0,0:0:0:0:
256,184,97886,2,0,L|-40:16,1,315
256,184,98017,2,0,L|-40:16,1,315
256,184,98147,2,0,L|-40:16,1,315
256,184,98278,2,0,L|-40:16,1,315
356,156,98408,1,0,0:0:0:0:
