osu file format v14

[General]
AudioFilename: Rape Girls.mp3
AudioLeadIn: 0
PreviewTime: 102298
Countdown: 1
SampleSet: Normal
StackLeniency: 0.7
Mode: 0
LetterboxInBreaks: 1
WidescreenStoryboard: 1

[Editor]
Bookmarks: 72396
DistanceSpacing: 1
BeatDivisor: 4
GridSize: 16
TimelineZoom: 2.999999

[Metadata]
Title:Rape Girls
TitleUnicode:Rape Girls
Artist:The Quick Brown Fox
ArtistUnicode:The Quick Brown Fox
Creator:zwoots
Version:Extra
Source:
Tags:
BeatmapID:755865
BeatmapSetID:341913

[Difficulty]
HPDrainRate:4
CircleSize:4
OverallDifficulty:6
ApproachRate:10
SliderMultiplier:2.5
SliderTickRate:1

[Events]
//Background and Video events
0,0,"rustle - Copy.jpg",0,0
//Break Periods
2,37142,40004
2,40881,43856
2,88000,90748
2,91625,94599
//Storyboard Layer 0 (Background)
//Storyboard Layer 1 (Fail)
//Storyboard Layer 2 (Pass)
//Storyboard Layer 3 (Foreground)
//Storyboard Sound Samples

[TimingPoints]
8060.68541815898,226.533659491194,4,1,0,100,1,0
10332,-200,4,1,0,100,0,0
10665,-100,4,1,0,100,0,0
80551,-200,4,1,0,100,0,0
86441,-100,4,1,0,100,0,0
104535,-200,4,1,0,100,0,0
106716,-100,4,1,0,100,0,0

[HitObjects]
48,80,8060,5,0,0:0:0:0:
432,336,8287,1,0,0:0:0:0:
320,80,8513,1,0,0:0:0:0:
240,224,8740,1,0,0:0:0:0:
144,96,8966,5,0,0:0:0:0:
144,96,9080,1,0,0:0:0:0:
192,256,9193,1,0,0:0:0:0:
192,256,9306,1,0,0:0:0:0:
368,192,9419,1,0,0:0:0:0:
368,192,9533,1,0,0:0:0:0:
320,32,9646,1,0,0:0:0:0:
320,32,9759,1,0,0:0:0:0:
480,144,9872,6,0,B|456:116|456:116|416:112,1,62.5
416,192,9986,2,0,B|450:201|450:201|494:176,1,62.5
368,256,10099,2,0,B|344:228|344:228|294:224,1,62.5
320,320,10212,2,0,B|354:329|354:329|398:304,1,62.5
128,288,10326,6,0,P|192:272|208:112,1,250
352,96,10779,2,0,B|298:54|298:54|221:79,1,125
267,311,11005,2,0,B|213:329|213:329|160:288,1,125
304,208,11232,1,0,0:0:0:0:
304,208,11345,1,0,0:0:0:0:
304,208,11458,1,0,0:0:0:0:
304,208,11571,1,0,0:0:0:0:
480,80,11685,5,0,0:0:0:0:
112,144,11911,1,0,0:0:0:0:
496,352,12138,1,0,0:0:0:0:
96,336,12364,1,0,0:0:0:0:
176,128,12591,5,0,0:0:0:0:
176,128,12704,1,0,0:0:0:0:
336,255,12817,1,0,0:0:0:0:
336,255,12931,1,0,0:0:0:0:
192,271,13044,1,0,0:0:0:0:
192,271,13157,1,0,0:0:0:0:
319,112,13270,1,0,0:0:0:0:
319,112,13384,1,0,0:0:0:0:
192,96,13497,6,0,B|160:78|160:78|173:11,1,62.5
224,160,13610,2,0,B|255:142|255:142|242:75,1,62.5
176,208,13724,2,0,B|144:190|144:190|157:123,1,62.5
224,272,13837,2,0,B|255:254|255:254|242:187,1,62.5
112,352,14063,1,0,0:0:0:0:
112,352,14177,1,0,0:0:0:0:
112,352,14290,1,0,0:0:0:0:
80,128,14403,6,0,P|147:60|170:82,1,125
192,160,14630,2,0,P|259:92|282:114,1,125
288,208,14856,2,0,P|355:140|378:162,1,125
400,256,15083,2,0,P|467:188|490:210,1,125
480,320,15309,5,0,0:0:0:0:
288,0,15536,1,0,0:0:0:0:
288,0,15649,1,0,0:0:0:0:
512,336,15876,1,0,0:0:0:0:
512,336,15989,1,0,0:0:0:0:
176,112,16215,5,0,0:0:0:0:
176,112,16329,1,0,0:0:0:0:
336,112,16442,1,0,0:0:0:0:
336,112,16555,1,0,0:0:0:0:
336,272,16668,1,0,0:0:0:0:
336,272,16782,1,0,0:0:0:0:
176,272,16895,1,0,0:0:0:0:
176,272,17008,1,0,0:0:0:0:
256,192,17122,5,0,0:0:0:0:
256,64,17348,1,0,0:0:0:0:
256,64,17461,1,0,0:0:0:0:
256,304,17688,1,0,0:0:0:0:
256,304,17801,1,0,0:0:0:0:
80,160,18028,6,0,P|128:112|176:128,1,125
176,128,18254,1,0,0:0:0:0:
176,128,18367,1,0,0:0:0:0:
192,144,18481,1,0,0:0:0:0:
368,208,18707,1,0,0:0:0:0:
368,208,18821,1,0,0:0:0:0:
368,208,18934,1,0,0:0:0:0:
512,336,19160,1,0,0:0:0:0:
112,336,19387,1,0,0:0:0:0:
112,336,19613,5,0,0:0:0:0:
256,64,19840,1,0,0:0:0:0:
256,64,19953,1,0,0:0:0:0:
256,224,20066,1,0,0:0:0:0:
256,224,20180,1,0,0:0:0:0:
256,144,20293,1,0,0:0:0:0:
256,144,20406,1,0,0:0:0:0:
256,304,20520,1,0,0:0:0:0:
256,304,20633,1,0,0:0:0:0:
256,304,20746,5,0,0:0:0:0:
256,304,20859,1,0,0:0:0:0:
256,304,20973,1,0,0:0:0:0:
256,304,21086,1,0,0:0:0:0:
144,256,21312,6,0,P|80:288|80:368,2,125
443,240,21652,2,0,P|424:297|368:320,3,125
320,208,22105,6,0,L|368:160,1,62.5
272,160,22219,6,0,L|224:112,1,62.5
320,112,22332,6,0,L|368:64,1,62.5
384,192,22558,5,0,0:0:0:0:
384,192,22672,1,0,0:0:0:0:
256,320,22785,1,0,0:0:0:0:
256,320,22898,1,0,0:0:0:0:
128,192,23011,1,0,2:0:0:0:
128,192,23125,1,0,2:0:0:0:
255,64,23238,1,0,2:0:0:0:
255,64,23351,1,0,2:0:0:0:
348,280,23465,5,0,0:0:0:0:
348,280,23578,1,0,0:0:0:0:
167,284,23691,1,0,0:0:0:0:
167,284,23804,1,0,0:0:0:0:
163,103,23918,1,0,2:0:0:0:
163,103,24031,1,0,2:0:0:0:
344,99,24144,1,0,2:0:0:0:
344,99,24257,1,0,2:0:0:0:
255,64,24371,5,0,2:0:0:0:
255,64,24484,1,0,2:0:0:0:
128,192,24597,1,0,2:0:0:0:
128,192,24710,1,0,2:0:0:0:
256,320,24824,1,0,0:0:0:0:
256,320,24937,1,0,0:0:0:0:
384,192,25050,1,0,0:0:0:0:
384,192,25164,1,0,0:0:0:0:
256,176,25277,5,0,0:0:0:0:
256,176,25390,1,0,0:0:0:0:
256,176,25503,1,0,0:0:0:0:
256,176,25617,1,0,0:0:0:0:
256,176,25730,1,0,0:0:0:0:
256,176,25843,1,0,0:0:0:0:
272,192,25956,1,0,0:0:0:0:
272,192,26013,1,0,0:0:0:0:
272,192,26070,1,0,0:0:0:0:
272,192,26126,1,0,0:0:0:0:
272,192,26183,2,0,L|368:272,1,125
384,192,26409,5,0,0:0:0:0:
384,192,26523,1,0,0:0:0:0:
256,320,26636,1,0,0:0:0:0:
256,320,26749,1,0,0:0:0:0:
128,192,26862,1,0,2:0:0:0:
128,192,26976,1,0,2:0:0:0:
255,64,27089,1,0,2:0:0:0:
255,64,27202,1,0,2:0:0:0:
348,280,27316,5,0,0:0:0:0:
348,280,27429,1,0,0:0:0:0:
167,284,27542,1,0,0:0:0:0:
167,284,27655,1,0,0:0:0:0:
163,103,27769,1,0,2:0:0:0:
163,103,27882,1,0,2:0:0:0:
344,99,27995,1,0,2:0:0:0:
344,99,28108,1,0,2:0:0:0:
255,64,28222,5,0,2:0:0:0:
255,64,28335,1,0,2:0:0:0:
128,192,28448,1,0,2:0:0:0:
128,192,28561,1,0,2:0:0:0:
256,320,28675,1,0,0:0:0:0:
256,320,28788,1,0,0:0:0:0:
384,192,28901,1,0,0:0:0:0:
384,192,29015,1,0,0:0:0:0:
348,280,29128,5,0,0:0:0:0:
348,280,29241,1,0,0:0:0:0:
167,284,29354,1,0,0:0:0:0:
167,284,29581,1,0,0:0:0:0:
192,128,29807,5,0,0:0:0:0:
192,128,29921,1,0,0:0:0:0:
320,128,30034,1,0,0:0:0:0:
320,128,30147,1,0,0:0:0:0:
320,256,30260,1,0,0:0:0:0:
320,256,30374,1,0,0:0:0:0:
192,256,30487,1,0,0:0:0:0:
192,256,30600,1,0,0:0:0:0:
256,32,30713,5,0,0:0:0:0:
256,32,30826,1,0,0:0:0:0:
416,192,30939,1,0,0:0:0:0:
416,192,31052,1,0,0:0:0:0:
256,352,31166,1,0,0:0:0:0:
256,352,31279,1,0,0:0:0:0:
96,192,31392,1,0,0:0:0:0:
96,192,31450,1,0,0:0:0:0:
96,192,31506,1,0,0:0:0:0:
96,192,31563,1,0,0:0:0:0:
96,192,31620,2,0,L|224:192,1,125
336,112,31846,5,0,0:0:0:0:
336,112,31959,1,0,0:0:0:0:
176,272,32073,1,0,0:0:0:0:
176,272,32186,1,0,0:0:0:0:
367,211,32299,5,0,0:0:0:0:
367,211,32412,1,0,0:0:0:0:
144,172,32526,1,0,0:0:0:0:
144,172,32639,1,0,0:0:0:0:
294,298,32752,5,0,0:0:0:0:
294,298,32865,1,0,0:0:0:0:
217,85,32979,1,0,0:0:0:0:
217,85,33092,1,0,0:0:0:0:
256,192,33205,5,0,0:0:0:0:
256,192,33262,1,0,0:0:0:0:
256,192,33319,1,0,0:0:0:0:
256,192,33375,1,0,0:0:0:0:
256,192,33432,2,0,L|400:192,1,125
217,85,33658,5,0,0:0:0:0:
217,85,33771,1,0,0:0:0:0:
294,298,33885,1,0,0:0:0:0:
294,298,33998,1,0,0:0:0:0:
144,172,34111,5,0,0:0:0:0:
144,172,34224,1,0,0:0:0:0:
367,211,34338,1,0,0:0:0:0:
367,211,34451,1,0,0:0:0:0:
176,272,34564,5,0,0:0:0:0:
176,272,34677,1,0,0:0:0:0:
336,112,34791,1,0,0:0:0:0:
336,112,34904,1,0,0:0:0:0:
230,81,35018,5,0,0:0:0:0:
230,81,35131,1,0,0:0:0:0:
280,301,35245,1,0,0:0:0:0:
280,301,35358,1,0,0:0:0:0:
147,158,35471,5,0,0:0:0:0:
147,158,35584,1,0,0:0:0:0:
363,224,35698,1,0,0:0:0:0:
363,224,35811,1,0,0:0:0:0:
166,261,35924,5,0,0:0:0:0:
166,261,36037,1,0,0:0:0:0:
345,122,36151,1,0,0:0:0:0:
345,122,36264,1,0,0:0:0:0:
166,261,36377,1,0,0:0:0:0:
166,261,36490,1,0,0:0:0:0:
345,122,36603,2,0,B|400:112|432:112|480:144,3,125
256,192,40454,5,0,0:0:0:0:
256,192,40681,1,0,0:0:0:0:
256,192,44306,5,0,0:0:0:0:
256,192,45212,5,0,0:0:0:0:
256,192,46118,5,0,0:0:0:0:
256,192,47024,5,0,0:0:0:0:
256,192,47704,5,0,0:0:0:0:
256,192,47930,1,0,0:0:0:0:
320,128,48383,5,0,0:0:0:0:
192,256,48836,1,0,0:0:0:0:
352,224,49289,5,0,0:0:0:0:
144,160,49742,1,0,0:0:0:0:
128,176,49969,5,0,0:0:0:0:
192,256,50195,1,0,0:0:0:0:
320,256,50422,5,0,0:0:0:0:
192,128,50648,1,0,0:0:0:0:
192,128,50705,1,0,0:0:0:0:
192,128,50762,1,0,0:0:0:0:
192,128,50818,1,0,0:0:0:0:
192,128,50875,1,0,0:0:0:0:
192,128,50932,1,0,0:0:0:0:
192,128,50988,1,0,0:0:0:0:
128,175,51102,1,0,0:0:0:0:
128,175,51159,1,0,0:0:0:0:
128,175,51216,1,0,0:0:0:0:
128,175,51272,1,0,0:0:0:0:
128,175,51329,1,0,0:0:0:0:
128,176,51385,1,0,0:0:0:0:
128,176,51441,1,0,0:0:0:0:
192,288,51555,6,0,L|256:304,4,62.5
272,192,51894,1,0,0:0:0:0:
272,192,51951,1,0,0:0:0:0:
272,192,52008,1,0,0:0:0:0:
272,192,52064,1,0,0:0:0:0:
272,192,52121,1,0,0:0:0:0:
384,128,52234,1,0,0:0:0:0:
384,128,52291,1,0,0:0:0:0:
384,128,52348,1,0,0:0:0:0:
384,128,52404,1,0,0:0:0:0:
384,128,52461,1,0,0:0:0:0:
448,240,52574,6,0,L|384:224,4,62.5
448,112,52914,1,0,0:0:0:0:
336,80,53027,1,0,0:0:0:0:
208,80,53140,1,0,0:0:0:0:
80,112,53254,1,0,0:0:0:0:
32,224,53367,5,0,0:0:0:0:
32,224,53424,1,0,0:0:0:0:
32,224,53480,1,0,0:0:0:0:
32,224,53537,1,0,0:0:0:0:
32,224,53593,1,0,0:0:0:0:
144,272,53707,1,0,0:0:0:0:
144,272,53763,1,0,0:0:0:0:
144,272,53820,1,0,0:0:0:0:
144,272,53877,1,0,0:0:0:0:
144,272,53933,1,0,0:0:0:0:
272,288,54047,2,0,L|256:224,4,62.5
400,256,54386,1,0,0:0:0:0:
400,256,54443,1,0,0:0:0:0:
400,256,54500,1,0,0:0:0:0:
400,256,54556,1,0,0:0:0:0:
400,256,54613,1,0,0:0:0:0:
432,48,54726,6,0,L|400:80,6,31.25
368,80,54953,6,0,L|408:99,6,31.25
320,304,55179,6,0,L|288:208,4,62.5
192,272,55519,1,0,0:0:0:0:
192,272,55576,1,0,0:0:0:0:
192,272,55632,1,0,0:0:0:0:
192,272,55689,1,0,0:0:0:0:
192,272,55746,1,0,0:0:0:0:
272,176,55859,1,0,0:0:0:0:
272,176,55915,1,0,0:0:0:0:
272,176,55972,1,0,0:0:0:0:
272,176,56029,1,0,0:0:0:0:
272,176,56085,1,0,0:0:0:0:
400,176,56199,1,0,0:0:0:0:
400,176,56255,1,0,0:0:0:0:
400,176,56312,1,0,0:0:0:0:
400,176,56368,1,0,0:0:0:0:
400,176,56425,1,0,0:0:0:0:
352,64,56538,1,0,0:0:0:0:
224,64,56652,1,0,0:0:0:0:
96,80,56765,1,0,0:0:0:0:
48,192,56878,1,0,0:0:0:0:
112,288,56991,1,0,0:0:0:0:
240,304,57105,5,0,0:0:0:0:
240,304,57331,1,0,0:0:0:0:
240,304,57671,1,0,0:0:0:0:
400,112,57898,6,0,L|352:112,6,31.25
272,160,58124,1,0,0:0:0:0:
368,240,58237,1,0,0:0:0:0:
256,304,58351,2,0,L|224:288,6,31.25
212,253,58577,2,0,L|244:237,6,31.25
112,224,58804,6,0,L|144:288,4,62.5
240,240,59144,1,0,0:0:0:0:
240,240,59200,1,0,0:0:0:0:
240,240,59257,1,0,0:0:0:0:
240,240,59313,1,0,0:0:0:0:
240,240,59370,1,0,0:0:0:0:
368,224,59483,1,0,0:0:0:0:
368,224,59540,1,0,0:0:0:0:
368,224,59597,1,0,0:0:0:0:
368,224,59653,1,0,0:0:0:0:
368,224,59710,1,0,0:0:0:0:
432,112,59823,1,0,0:0:0:0:
432,112,59880,1,0,0:0:0:0:
432,112,59936,1,0,0:0:0:0:
432,112,59993,1,0,0:0:0:0:
432,112,60050,1,0,0:0:0:0:
304,80,60163,1,0,0:0:0:0:
176,96,60276,1,0,0:0:0:0:
96,192,60389,1,0,0:0:0:0:
160,304,60503,1,0,0:0:0:0:
272,336,60616,5,0,0:0:0:0:
272,336,60673,1,0,0:0:0:0:
272,336,60729,1,0,0:0:0:0:
272,336,60786,1,0,0:0:0:0:
272,336,60843,1,0,0:0:0:0:
368,272,60956,2,0,L|304:224,4,62.5
432,160,61296,1,0,0:0:0:0:
432,160,61352,1,0,0:0:0:0:
432,160,61409,1,0,0:0:0:0:
432,160,61465,1,0,0:0:0:0:
432,160,61522,1,0,0:0:0:0:
336,80,61635,2,0,L|256:112,4,62.5
224,32,61975,6,0,L|192:64,6,31.25
176,80,62202,6,0,L|216:99,6,31.25
112,256,62428,6,0,L|176:192,4,62.5
224,304,62768,1,0,0:0:0:0:
224,304,62825,1,0,0:0:0:0:
224,304,62881,1,0,0:0:0:0:
224,304,62938,1,0,0:0:0:0:
224,304,62995,1,0,0:0:0:0:
352,320,63108,1,0,0:0:0:0:
352,320,63164,1,0,0:0:0:0:
352,320,63221,1,0,0:0:0:0:
352,320,63278,1,0,0:0:0:0:
352,320,63334,1,0,0:0:0:0:
448,240,63448,1,0,0:0:0:0:
448,240,63504,1,0,0:0:0:0:
448,240,63561,1,0,0:0:0:0:
448,240,63618,1,0,0:0:0:0:
448,240,63674,1,0,0:0:0:0:
320,224,63787,1,0,0:0:0:0:
192,224,63901,1,0,0:0:0:0:
64,224,64014,1,0,0:0:0:0:
160,144,64127,1,0,0:0:0:0:
288,128,64241,1,0,0:0:0:0:
288,128,64580,1,0,0:0:0:0:
288,128,64920,1,0,0:0:0:0:
288,128,65260,1,0,0:0:0:0:
288,128,65600,1,0,0:0:0:0:
288,128,65713,1,0,0:0:0:0:
288,128,65826,1,0,0:0:0:0:
288,128,65940,1,0,0:0:0:0:
288,128,66053,6,0,L|352:160,4,62.5
288,128,66336,1,0,0:0:0:0:
288,128,66393,1,0,0:0:0:0:
288,128,66449,1,0,0:0:0:0:
288,128,66506,1,0,0:0:0:0:
288,128,66563,1,0,0:0:0:0:
288,128,66619,1,0,0:0:0:0:
288,128,66676,1,0,0:0:0:0:
320,160,66732,6,0,L|176:80,1,125
210,99,66959,1,0,0:0:0:0:
210,99,67016,1,0,0:0:0:0:
210,99,67072,1,0,0:0:0:0:
210,99,67129,1,0,0:0:0:0:
210,99,67185,1,0,0:0:0:0:
210,99,67242,1,0,0:0:0:0:
210,99,67299,1,0,0:0:0:0:
210,99,67355,1,0,0:0:0:0:
210,99,67412,1,0,0:0:0:0:
210,99,67469,1,0,0:0:0:0:
210,99,67525,1,0,0:0:0:0:
210,99,67582,1,0,0:0:0:0:
256,144,67639,6,0,L|400:96,1,125
374,104,67865,1,0,0:0:0:0:
374,104,67922,1,0,0:0:0:0:
374,104,67978,1,0,0:0:0:0:
374,104,68035,1,0,0:0:0:0:
374,104,68092,1,0,0:0:0:0:
374,104,68148,1,0,0:0:0:0:
374,104,68205,1,0,0:0:0:0:
374,104,68262,1,0,0:0:0:0:
374,104,68318,1,0,0:0:0:0:
374,104,68375,1,0,0:0:0:0:
374,104,68431,1,0,0:0:0:0:
374,104,68488,1,0,0:0:0:0:
416,150,68545,6,0,L|272:70,1,125
306,89,68771,1,0,0:0:0:0:
306,89,68828,1,0,0:0:0:0:
306,89,68884,1,0,0:0:0:0:
306,89,68941,1,0,0:0:0:0:
306,89,68998,1,0,0:0:0:0:
306,89,69054,1,0,0:0:0:0:
306,89,69111,1,0,0:0:0:0:
306,89,69168,1,0,0:0:0:0:
306,89,69224,1,0,0:0:0:0:
306,89,69281,1,0,0:0:0:0:
306,89,69338,1,0,0:0:0:0:
306,89,69394,1,0,0:0:0:0:
350,133,69451,6,0,L|190:85,1,125
230,97,69677,1,0,0:0:0:0:
230,97,69734,1,0,0:0:0:0:
230,97,69791,1,0,0:0:0:0:
230,97,69847,1,0,0:0:0:0:
230,97,69904,1,0,0:0:0:0:
230,97,69961,1,0,0:0:0:0:
230,97,70017,1,0,0:0:0:0:
230,97,70074,1,0,0:0:0:0:
230,97,70130,1,0,0:0:0:0:
230,97,70187,1,0,0:0:0:0:
230,97,70244,1,0,0:0:0:0:
230,97,70300,1,0,0:0:0:0:
275,140,70357,6,0,L|219:256,1,125
266,297,70583,1,0,0:0:0:0:
266,297,70640,1,0,0:0:0:0:
266,297,70697,1,0,0:0:0:0:
266,297,70753,1,0,0:0:0:0:
266,297,70810,1,0,0:0:0:0:
266,297,70867,1,0,0:0:0:0:
266,297,70923,1,0,0:0:0:0:
266,297,70980,1,0,0:0:0:0:
266,297,71037,1,0,0:0:0:0:
266,297,71093,1,0,0:0:0:0:
266,297,71150,1,0,0:0:0:0:
266,297,71206,1,0,0:0:0:0:
266,297,71263,6,0,P|196:260|177:204,1,125
336,64,71490,2,0,P|350:115|430:131,1,125
128,144,71716,2,0,P|84:175|96:255,1,125
224,320,71943,2,0,P|277:325|321:257,1,125
416,96,72169,2,0,P|385:52|304:62,1,125
96,112,72396,2,0,P|101:165|177:194,1,125
176,352,72622,2,0,P|229:346|258:270,1,125
416,272,72849,2,0,P|410:218|334:189,1,125
336,32,73075,2,0,P|282:37|253:113,1,125
176,208,73302,6,0,L|112:176,4,62.5
176,208,73585,1,0,0:0:0:0:
176,208,73642,1,0,0:0:0:0:
176,208,73698,1,0,0:0:0:0:
176,208,73755,1,0,0:0:0:0:
176,208,73812,1,0,0:0:0:0:
176,208,73868,1,0,0:0:0:0:
128,160,73925,1,0,0:0:0:0:
176,208,73981,6,0,L|320:288,1,125
286,269,74208,1,0,0:0:0:0:
286,269,74265,1,0,0:0:0:0:
286,269,74321,1,0,0:0:0:0:
286,269,74378,1,0,0:0:0:0:
286,269,74434,1,0,0:0:0:0:
286,269,74491,1,0,0:0:0:0:
286,269,74548,1,0,0:0:0:0:
286,269,74604,1,0,0:0:0:0:
286,269,74661,1,0,0:0:0:0:
286,269,74718,1,0,0:0:0:0:
286,269,74774,1,0,0:0:0:0:
286,269,74831,1,0,0:0:0:0:
286,269,74888,6,0,L|161:182,1,125
183,198,75114,1,0,0:0:0:0:
183,198,75171,1,0,0:0:0:0:
183,198,75227,1,0,0:0:0:0:
183,198,75284,1,0,0:0:0:0:
183,198,75341,1,0,0:0:0:0:
183,198,75397,1,0,0:0:0:0:
183,198,75454,1,0,0:0:0:0:
183,198,75511,1,0,0:0:0:0:
183,198,75567,1,0,0:0:0:0:
183,198,75624,1,0,0:0:0:0:
183,198,75680,1,0,0:0:0:0:
183,198,75737,1,0,0:0:0:0:
240,256,75794,6,0,L|277:95,1,125
268,133,76020,1,0,0:0:0:0:
268,133,76077,1,0,0:0:0:0:
268,133,76133,1,0,0:0:0:0:
268,133,76190,1,0,0:0:0:0:
268,133,76247,1,0,0:0:0:0:
268,133,76303,1,0,0:0:0:0:
268,133,76360,1,0,0:0:0:0:
268,133,76417,1,0,0:0:0:0:
268,133,76473,1,0,0:0:0:0:
268,133,76530,1,0,0:0:0:0:
268,133,76587,1,0,0:0:0:0:
268,133,76643,1,0,0:0:0:0:
320,176,76700,6,0,L|159:128,1,125
200,140,76926,1,0,0:0:0:0:
200,140,76983,1,0,0:0:0:0:
200,140,77040,1,0,0:0:0:0:
200,140,77096,1,0,0:0:0:0:
200,140,77153,1,0,0:0:0:0:
200,140,77210,1,0,0:0:0:0:
200,140,77266,1,0,0:0:0:0:
200,140,77323,1,0,0:0:0:0:
200,140,77379,1,0,0:0:0:0:
200,140,77436,1,0,0:0:0:0:
200,140,77493,1,0,0:0:0:0:
200,140,77549,1,0,0:0:0:0:
304,240,77606,6,0,L|360:124,1,125
358,127,77832,1,0,0:0:0:0:
358,127,77889,1,0,0:0:0:0:
358,127,77946,1,0,0:0:0:0:
358,127,78002,1,0,0:0:0:0:
358,127,78059,1,0,0:0:0:0:
358,127,78116,1,0,0:0:0:0:
358,127,78172,1,0,0:0:0:0:
358,127,78229,1,0,0:0:0:0:
358,127,78286,1,0,0:0:0:0:
358,127,78342,1,0,0:0:0:0:
358,127,78399,1,0,0:0:0:0:
358,127,78455,1,0,0:0:0:0:
358,127,78512,6,0,P|343:75|263:59,1,125
154,257,78739,2,0,P|168:308|248:324,1,125
374,218,78965,2,0,P|400:171|355:103,1,125
137,165,79192,2,0,P|111:212|156:280,1,125
321,293,79418,2,0,P|372:279|388:199,1,125
191,90,79645,2,0,P|139:104|123:184,1,125
229,310,79871,2,0,P|276:336|344:291,1,125
282,73,80098,2,0,P|235:47|167:92,1,125
256,240,80324,2,0,L|256:112,1,125
240,48,80551,6,0,P|192:48|112:96,1,125
112,208,81004,2,0,P|128:256|160:272,3,62.5
135,262,81457,1,0,0:0:0:0:
256,320,81684,1,0,0:0:0:0:
352,240,81910,6,0,P|336:192|304:176,3,62.5
328,185,82363,1,0,0:0:0:0:
288,64,82590,1,0,0:0:0:0:
288,64,82703,1,0,0:0:0:0:
224,80,82816,6,0,P|176:112|160:128,1,62.5
224,80,83043,2,0,P|224:112|240:144,1,62.5
224,80,83269,1,0,0:0:0:0:
160,192,83496,1,0,0:0:0:0:
256,272,83722,6,0,P|272:240|256:224,4,62.5
416,272,84402,1,0,0:0:0:0:
352,160,84629,6,0,P|336:191|352:208,4,62.5
192,160,85309,1,0,0:0:0:0:
272,64,85535,6,0,P|320:64|352:80,4,62.5
272,64,86328,1,0,0:0:0:0:
272,64,86724,2,0,L|464:80,1,187.5
256,192,87007,12,0,87800,0:0:0:0:
256,192,91198,5,0,0:0:0:0:
256,192,91425,1,0,0:0:0:0:
256,192,95049,5,0,0:0:0:0:
256,192,95955,5,0,0:0:0:0:
256,192,96861,5,0,0:0:0:0:
256,192,97768,5,0,0:0:0:0:
256,192,98447,5,0,0:0:0:0:
256,192,98674,1,0,0:0:0:0:
256,192,99127,5,0,0:0:0:0:
256,192,99580,5,0,0:0:0:0:
256,192,100033,5,0,0:0:0:0:
256,192,100486,5,0,0:0:0:0:
256,192,100712,5,0,0:0:0:0:
256,192,100939,5,0,0:0:0:0:
256,192,101166,5,0,0:0:0:0:
256,192,101392,1,0,0:0:0:0:
256,192,101449,1,0,0:0:0:0:
256,192,101505,1,0,0:0:0:0:
256,192,101562,1,0,0:0:0:0:
256,192,101619,1,0,0:0:0:0:
256,192,101675,1,0,0:0:0:0:
256,192,101732,1,0,0:0:0:0:
304,80,101845,1,0,0:0:0:0:
304,80,101902,1,0,0:0:0:0:
304,80,101958,1,0,0:0:0:0:
304,80,102015,1,0,0:0:0:0:
304,80,102072,1,0,0:0:0:0:
304,80,102128,1,0,0:0:0:0:
304,80,102185,1,0,0:0:0:0:
80,352,102298,5,0,0:0:0:0:
208,32,102525,1,0,0:0:0:0:
368,352,102751,1,0,0:0:0:0:
0,176,102978,1,0,0:0:0:0:
464,191,103204,2,0,P|457:112|416:86,1,125
48,192,103431,2,0,P|54:271|95:297,1,125
164,5,103657,2,0,P|96:46|91:93,1,125
347,378,103884,2,0,P|415:337|420:290,1,125
48,192,104110,6,0,L|112:192,1,62.5
208,240,104224,2,0,L|144:240,1,62.5
144,192,104337,6,0,L|208:192,1,62.5
112,240,104450,2,0,L|48:240,1,62.5
256,192,104564,6,0,L|256:48,1,125
224,160,105017,5,0,0:0:0:0:
224,160,105130,1,0,0:0:0:0:
288,224,105243,1,0,0:0:0:0:
288,224,105356,1,0,0:0:0:0:
176,112,105470,5,0,0:0:0:0:
176,112,105583,1,0,0:0:0:0:
336,272,105696,1,0,0:0:0:0:
336,272,105809,1,0,0:0:0:0:
256,192,105923,5,0,0:0:0:0:
448,64,106149,1,0,0:0:0:0:
64,320,106376,1,0,0:0:0:0:
192,320,106602,1,0,0:0:0:0:
320,144,106829,6,0,B|311:149|432:64,1,125
192,240,107055,2,0,L|80:320,1,125
193,141,107282,6,0,B|201:148|89:52,1,125
318,242,107508,2,0,L|422:331,1,125
448,160,107735,6,0,L|480:96,1,62.5
384,160,107848,2,0,L|384:96,1,62.5
336,176,107962,2,0,L|288:128,1,62.5
320,224,108075,2,0,L|240:224,1,62.5
0,160,108301,5,0,0:0:0:0:
0,160,108415,1,0,0:0:0:0:
0,160,108528,1,0,0:0:0:0:
112,96,108641,2,0,P|80:160|96:240,1,125
208,224,108868,2,0,P|230:291|298:337,1,125
352,224,109094,2,0,P|421:240|495:207,1,125
384,128,109321,2,0,P|453:110|503:45,1,125
368,48,109547,5,0,0:0:0:0:
240,320,109774,1,0,0:0:0:0:
240,320,109887,1,0,0:0:0:0:
48,160,110114,1,0,0:0:0:0:
48,160,110227,1,0,0:0:0:0:
464,64,110453,6,0,P|352:32|304:48,1,125
144,80,110680,2,0,P|160:195|194:232,1,125
352,336,110906,2,0,P|399:229|390:179,1,125
64,336,111133,2,0,P|16:229|25:179,1,125
0,48,111360,5,0,0:0:0:0:
300,49,111587,1,0,0:0:0:0:
300,49,111700,1,0,0:0:0:0:
236,290,111927,1,0,0:0:0:0:
236,290,112040,1,0,0:0:0:0:
80,160,112266,6,0,P|128:112|176:128,1,125
176,128,112492,1,0,0:0:0:0:
176,128,112605,1,0,0:0:0:0:
192,144,112719,1,0,0:0:0:0:
368,208,112945,1,0,0:0:0:0:
368,208,113059,1,0,0:0:0:0:
368,208,113172,1,0,0:0:0:0:
512,336,113398,1,0,0:0:0:0:
112,336,113625,1,0,0:0:0:0:
464,176,113851,1,0,0:0:0:0:
80,112,114078,6,0,P|137:56|217:46,1,125
448,208,114304,2,0,P|390:152|310:142,1,125
80,304,114531,2,0,P|137:248|217:238,1,125
448,352,114758,2,0,P|390:296|310:286,1,125
288,176,114984,6,0,L|352:128,1,62.5
208,144,115097,2,0,L|160:80,1,62.5
208,224,115211,2,0,L|288:240,1,62.5
336,224,115324,2,0,L|432:224,1,62.5
384,320,115550,1,0,0:0:0:0:
384,320,115664,1,0,0:0:0:0:
384,320,115777,1,0,0:0:0:0:
427,268,115890,6,0,P|426:172|394:172,1,125
324,213,116117,2,0,P|323:117|291:117,1,125
221,181,116343,2,0,P|220:85|189:85,1,125
107,138,116570,1,0,0:0:0:0:
320,96,116796,6,0,L|256:80,4,62.5
240,192,117135,1,0,0:0:0:0:
240,192,117192,1,0,0:0:0:0:
240,192,117249,1,0,0:0:0:0:
240,192,117305,1,0,0:0:0:0:
240,192,117362,1,0,0:0:0:0:
128,256,117475,1,0,0:0:0:0:
128,256,117532,1,0,0:0:0:0:
128,256,117589,1,0,0:0:0:0:
128,256,117645,1,0,0:0:0:0:
128,256,117702,1,0,0:0:0:0:
64,144,117815,6,0,L|128:160,4,62.5
64,272,118155,1,0,0:0:0:0:
176,304,118268,1,0,0:0:0:0:
304,304,118381,1,0,0:0:0:0:
432,272,118495,1,0,0:0:0:0:
480,160,118608,5,0,0:0:0:0:
480,160,118665,1,0,0:0:0:0:
480,160,118721,1,0,0:0:0:0:
480,160,118778,1,0,0:0:0:0:
480,160,118834,1,0,0:0:0:0:
368,112,118948,1,0,0:0:0:0:
368,112,119004,1,0,0:0:0:0:
368,112,119061,1,0,0:0:0:0:
368,112,119118,1,0,0:0:0:0:
368,112,119174,1,0,0:0:0:0:
240,96,119288,2,0,L|256:160,4,62.5
112,128,119627,1,0,0:0:0:0:
112,128,119684,1,0,0:0:0:0:
112,128,119741,1,0,0:0:0:0:
112,128,119797,1,0,0:0:0:0:
112,128,119854,1,0,0:0:0:0:
80,336,119967,6,0,L|112:304,6,31.25
144,320,120194,6,0,L|104:301,6,31.25
192,80,120420,6,0,L|224:176,4,62.5
320,112,120760,1,0,0:0:0:0:
320,112,120817,1,0,0:0:0:0:
320,112,120873,1,0,0:0:0:0:
320,112,120930,1,0,0:0:0:0:
320,112,120987,1,0,0:0:0:0:
240,208,121100,1,0,0:0:0:0:
240,208,121156,1,0,0:0:0:0:
240,208,121213,1,0,0:0:0:0:
240,208,121270,1,0,0:0:0:0:
240,208,121326,1,0,0:0:0:0:
112,208,121440,1,0,0:0:0:0:
112,208,121496,1,0,0:0:0:0:
112,208,121553,1,0,0:0:0:0:
112,208,121609,1,0,0:0:0:0:
112,208,121666,1,0,0:0:0:0:
160,320,121779,1,0,0:0:0:0:
288,320,121893,1,0,0:0:0:0:
416,304,122006,1,0,0:0:0:0:
464,192,122119,1,0,0:0:0:0:
400,96,122232,1,0,0:0:0:0:
272,80,122346,5,0,0:0:0:0:
272,80,122572,1,0,0:0:0:0:
272,80,122912,1,0,0:0:0:0:
112,272,123139,6,0,L|160:272,6,31.25
240,224,123365,1,0,0:0:0:0:
144,144,123478,1,0,0:0:0:0:
272,80,123592,2,0,L|304:96,6,31.25
224,48,123818,2,0,L|192:64,6,31.25
400,160,124045,6,0,L|368:96,4,62.5
272,144,124385,1,0,0:0:0:0:
272,144,124441,1,0,0:0:0:0:
272,144,124498,1,0,0:0:0:0:
272,144,124554,1,0,0:0:0:0:
272,144,124611,1,0,0:0:0:0:
144,160,124724,1,0,0:0:0:0:
144,160,124781,1,0,0:0:0:0:
144,160,124838,1,0,0:0:0:0:
144,160,124894,1,0,0:0:0:0:
144,160,124951,1,0,0:0:0:0:
80,272,125064,1,0,0:0:0:0:
80,272,125121,1,0,0:0:0:0:
80,272,125177,1,0,0:0:0:0:
80,272,125234,1,0,0:0:0:0:
80,272,125291,1,0,0:0:0:0:
208,304,125404,1,0,0:0:0:0:
336,288,125517,1,0,0:0:0:0:
416,192,125630,1,0,0:0:0:0:
352,80,125744,1,0,0:0:0:0:
240,48,125857,5,0,0:0:0:0:
240,48,125914,1,0,0:0:0:0:
240,48,125970,1,0,0:0:0:0:
240,48,126027,1,0,0:0:0:0:
240,48,126084,1,0,0:0:0:0:
144,112,126197,2,0,L|208:160,4,62.5
80,224,126537,1,0,0:0:0:0:
80,224,126593,1,0,0:0:0:0:
80,224,126650,1,0,0:0:0:0:
80,224,126706,1,0,0:0:0:0:
80,224,126763,1,0,0:0:0:0:
176,304,126876,2,0,L|256:272,4,62.5
288,352,127216,6,0,L|320:320,6,31.25
288,288,127443,6,0,L|248:269,6,31.25
400,128,127669,6,0,L|336:192,4,62.5
288,80,128009,1,0,0:0:0:0:
288,80,128066,1,0,0:0:0:0:
288,80,128122,1,0,0:0:0:0:
288,80,128179,1,0,0:0:0:0:
288,80,128236,1,0,0:0:0:0:
160,64,128349,1,0,0:0:0:0:
160,64,128405,1,0,0:0:0:0:
160,64,128462,1,0,0:0:0:0:
160,64,128519,1,0,0:0:0:0:
160,64,128575,1,0,0:0:0:0:
64,144,128689,1,0,0:0:0:0:
64,144,128745,1,0,0:0:0:0:
64,144,128802,1,0,0:0:0:0:
64,144,128859,1,0,0:0:0:0:
64,144,128915,1,0,0:0:0:0:
192,160,129028,1,0,0:0:0:0:
320,160,129142,1,0,0:0:0:0:
448,160,129255,1,0,0:0:0:0:
352,240,129368,1,0,0:0:0:0:
224,256,129482,1,0,0:0:0:0:
224,256,129821,1,0,0:0:0:0:
144,256,130049,6,0,P|80:288|80:368,2,125
443,240,130389,2,0,P|424:297|368:320,3,125
208,48,130842,6,0,L|160:96,1,62.5
240,112,130956,6,0,L|288:160,1,62.5
208,176,131069,6,0,L|160:224,1,62.5
163,220,131294,1,0,0:0:0:0:
