osu file format v14

[General]
AudioFilename: LOUDER!! LOUDER!!!! LOUDER!!!!!!.mp3
AudioLeadIn: 0
PreviewTime: 5255
Countdown: 0
SampleSet: None
StackLeniency: 0.7
Mode: 1
LetterboxInBreaks: 0
WidescreenStoryboard: 0

[Editor]
Bookmarks: 78659,79325
DistanceSpacing: 1.5
BeatDivisor: 4
GridSize: 32
TimelineZoom: 2.5

[Metadata]
Title:LOUDER!! LOUDER!!!! LOUDER!!!!!!
TitleUnicode:LOUDER!! LOUDER!!!! LOUDER!!!!!!
Artist:The Quick Brown Fox
ArtistUnicode:The Quick Brown Fox
Creator:ll-oscar
Version:ll-taiko
Source:
Tags:
BeatmapID:762870
BeatmapSetID:345453

[Difficulty]
HPDrainRate:5
CircleSize:5
OverallDifficulty:5
ApproachRate:5
SliderMultiplier:1.40000000596046
SliderTickRate:1

[Events]
//Background and Video events
0,0,"The_quick_brown_fox.jpg",0,0
//Break Periods
//Storyboard Layer 0 (Background)
//Storyboard Layer 1 (Fail)
//Storyboard Layer 2 (Pass)
//Storyboard Layer 3 (Foreground)
//Storyboard Sound Samples

[TimingPoints]
1335,333.333333333333,4,1,0,80,1,0
5334,-100,4,1,0,80,0,1
15001,-100,4,1,0,80,0,0
26668,-100,4,1,0,80,0,1
36334,-100,4,1,0,80,0,0
58668,-100,4,1,0,80,0,1
68668,-100,4,1,0,80,0,0
69334,-100,4,1,0,80,0,1
78668,-100,4,1,0,80,0,0
79334,-25,4,1,0,40,0,0

[Colours]
Combo1 : 0,0,0
Combo2 : 255,0,0
Combo3 : 255,128,0
Combo4 : 255,255,191
Combo5 : 0,255,0
Combo6 : 0,128,192

[HitObjects]
256,192,1335,5,8,0:0:0:0:
256,192,1584,1,0,0:0:0:0:
256,192,2668,5,12,0:0:0:0:
256,192,3335,1,8,0:0:0:0:
256,192,4001,1,8,0:0:0:0:
256,192,4084,1,8,0:0:0:0:
256,192,4168,1,8,0:0:0:0:
256,192,4251,1,8,0:0:0:0:
256,192,4334,1,8,0:0:0:0:
256,192,4418,1,8,0:0:0:0:
256,192,4501,1,8,0:0:0:0:
256,192,4584,1,8,0:0:0:0:
256,192,4668,1,8,0:0:0:0:
256,192,4751,1,8,0:0:0:0:
256,192,4834,1,8,0:0:0:0:
256,192,4918,1,8,0:0:0:0:
256,192,5001,1,8,0:0:0:0:
256,192,5084,1,8,0:0:0:0:
256,192,5168,1,0,0:0:0:0:
256,192,5334,1,4,0:0:0:0:
256,192,5501,1,0,0:0:0:0:
256,192,5668,1,8,0:0:0:0:
256,192,5834,1,0,0:0:0:0:
256,192,5918,1,0,0:0:0:0:
256,192,6001,1,8,0:0:0:0:
256,192,6168,1,0,0:0:0:0:
256,192,6251,1,8,0:0:0:0:
256,192,6418,1,0,0:0:0:0:
256,192,6501,1,8,0:0:0:0:
256,192,6668,1,0,0:0:0:0:
256,192,6751,1,0,0:0:0:0:
256,192,6834,1,0,0:0:0:0:
256,192,7001,1,8,0:0:0:0:
256,192,7168,1,0,0:0:0:0:
256,192,7334,1,0,0:0:0:0:
256,192,7418,1,8,0:0:0:0:
256,192,7501,1,0,0:0:0:0:
256,192,7584,1,0,0:0:0:0:
256,192,7751,1,8,0:0:0:0:
256,192,7834,1,0,0:0:0:0:
256,192,8001,1,8,0:0:0:0:
256,192,8084,1,8,0:0:0:0:
256,192,8168,1,0,0:0:0:0:
256,192,8334,1,0,0:0:0:0:
256,192,8501,1,0,0:0:0:0:
256,192,8584,1,0,0:0:0:0:
256,192,8668,1,8,0:0:0:0:
256,192,8834,1,0,0:0:0:0:
256,192,8918,1,0,0:0:0:0:
256,192,9084,1,8,0:0:0:0:
256,192,9168,1,0,0:0:0:0:
224,192,9334,1,0,0:0:0:0:
224,192,9418,1,0,0:0:0:0:
224,192,9501,1,0,0:0:0:0:
224,192,9668,1,8,0:0:0:0:
224,192,9834,1,0,0:0:0:0:
224,192,10001,1,8,0:0:0:0:
224,192,10084,1,8,0:0:0:0:
224,192,10251,1,0,0:0:0:0:
224,192,10334,1,0,0:0:0:0:
224,192,10418,1,8,0:0:0:0:
224,192,10501,1,0,0:0:0:0:
224,192,10668,1,0,0:0:0:0:
224,192,10751,1,0,0:0:0:0:
224,192,10834,1,0,0:0:0:0:
224,192,11001,1,8,0:0:0:0:
224,192,11168,1,0,0:0:0:0:
192,192,11251,1,0,0:0:0:0:
224,192,11334,1,8,0:0:0:0:
224,192,11501,1,0,0:0:0:0:
224,192,11584,1,8,0:0:0:0:
192,192,11751,1,0,0:0:0:0:
192,192,11834,1,8,0:0:0:0:
256,192,12001,1,0,0:0:0:0:
256,192,12084,1,0,0:0:0:0:
256,192,12167,1,0,0:0:0:0:
256,192,12334,1,8,0:0:0:0:
224,224,12418,1,0,0:0:0:0:
256,192,12501,1,0,0:0:0:0:
256,192,12667,1,0,0:0:0:0:
256,192,12751,1,8,0:0:0:0:
256,192,12834,1,0,0:0:0:0:
256,192,12917,1,0,0:0:0:0:
256,192,13084,1,8,0:0:0:0:
256,192,13167,1,0,0:0:0:0:
256,192,13334,1,8,0:0:0:0:
256,192,13417,1,8,0:0:0:0:
256,192,13501,1,0,0:0:0:0:
256,192,13667,1,0,0:0:0:0:
256,192,13834,1,0,0:0:0:0:
256,192,13917,1,0,0:0:0:0:
256,192,14001,1,8,0:0:0:0:
256,192,14167,1,0,0:0:0:0:
256,192,14251,1,0,0:0:0:0:
256,192,14417,1,8,0:0:0:0:
256,192,14501,1,0,0:0:0:0:
256,192,14668,12,0,15168,0:0:0:0:
256,192,15335,5,8,0:0:0:0:
256,192,15501,1,8,0:0:0:0:
256,192,15584,1,0,0:0:0:0:
256,192,15751,1,8,0:0:0:0:
224,192,15834,1,0,0:0:0:0:
256,192,16001,1,4,0:0:0:0:
224,160,16168,1,0,0:0:0:0:
224,192,16251,1,0,0:0:0:0:
224,192,16334,1,8,0:0:0:0:
224,192,16501,1,8,0:0:0:0:
224,192,16668,1,8,0:0:0:0:
224,192,16751,1,8,0:0:0:0:
224,192,16834,1,0,0:0:0:0:
128,128,17001,1,0,0:0:0:0:
224,192,17168,1,8,0:0:0:0:
128,128,17334,1,0,0:0:0:0:
128,128,17418,1,0,0:0:0:0:
128,128,17501,1,0,0:0:0:0:
128,128,17668,1,0,0:0:0:0:
128,128,17751,1,8,0:0:0:0:
128,128,17834,1,8,0:0:0:0:
128,128,18001,1,0,0:0:0:0:
128,128,18168,1,0,0:0:0:0:
128,128,18334,1,8,0:0:0:0:
128,128,18418,1,0,0:0:0:0:
128,128,18501,1,8,0:0:0:0:
128,128,18668,1,4,0:0:0:0:
128,128,18834,1,0,0:0:0:0:
128,128,18918,1,0,0:0:0:0:
128,128,19001,1,8,0:0:0:0:
128,128,19168,1,0,0:0:0:0:
128,128,19334,1,8,0:0:0:0:
128,128,19418,1,0,0:0:0:0:
128,128,19501,1,8,0:0:0:0:
224,160,19668,1,0,0:0:0:0:
224,160,19834,1,8,0:0:0:0:
224,160,20001,1,0,0:0:0:0:
224,160,20084,1,8,0:0:0:0:
224,160,20168,1,0,0:0:0:0:
256,160,20251,1,0,0:0:0:0:
224,160,20334,1,8,0:0:0:0:
224,160,20501,1,8,0:0:0:0:
224,160,20584,1,8,0:0:0:0:
224,160,20668,1,8,0:0:0:0:
224,160,20834,1,8,0:0:0:0:
224,160,20918,1,8,0:0:0:0:
224,160,21001,1,0,0:0:0:0:
224,160,21084,1,0,0:0:0:0:
224,160,21168,1,8,0:0:0:0:
224,160,21334,1,4,0:0:0:0:
224,160,21501,1,0,0:0:0:0:
224,160,21584,1,0,0:0:0:0:
224,160,21668,1,8,0:0:0:0:
224,160,21834,1,8,0:0:0:0:
224,160,22001,1,0,0:0:0:0:
224,160,22084,1,0,0:0:0:0:
224,160,22168,1,0,0:0:0:0:
224,160,22334,1,0,0:0:0:0:
224,160,22501,1,8,0:0:0:0:
224,160,22668,1,0,0:0:0:0:
224,160,22751,1,8,0:0:0:0:
224,160,22834,1,0,0:0:0:0:
224,160,22918,1,8,0:0:0:0:
224,160,23001,1,0,0:0:0:0:
224,160,23084,1,0,0:0:0:0:
224,160,23168,1,8,0:0:0:0:
224,160,23334,1,0,0:0:0:0:
224,160,23501,1,0,0:0:0:0:
224,160,23668,1,8,0:0:0:0:
224,160,23751,1,8,0:0:0:0:
224,160,23834,1,0,0:0:0:0:
288,192,24001,1,4,0:0:0:0:
256,192,24168,1,0,0:0:0:0:
224,192,24251,1,8,0:0:0:0:
224,192,24334,1,8,0:0:0:0:
256,192,24501,1,0,0:0:0:0:
256,192,24668,1,8,0:0:0:0:
256,192,24751,1,0,0:0:0:0:
256,192,24834,1,8,0:0:0:0:
256,192,25001,1,0,0:0:0:0:
256,192,25168,1,8,0:0:0:0:
256,192,25334,1,0,0:0:0:0:
256,192,25418,1,0,0:0:0:0:
256,192,25501,1,8,0:0:0:0:
256,192,25584,1,0,0:0:0:0:
256,192,25668,1,8,0:0:0:0:
256,192,25751,1,8,0:0:0:0:
256,192,25834,1,0,0:0:0:0:
256,192,25918,1,0,0:0:0:0:
256,192,26001,1,8,0:0:0:0:
256,192,26334,1,0,0:0:0:0:
256,192,26501,1,8,0:0:0:0:
256,192,26584,1,8,0:0:0:0:
256,192,26668,1,0,0:0:0:0:
256,192,26751,1,0,0:0:0:0:
256,192,26834,1,0,0:0:0:0:
256,192,27001,1,8,0:0:0:0:
256,192,27167,1,0,0:0:0:0:
256,192,27251,1,0,0:0:0:0:
256,192,27334,1,8,0:0:0:0:
256,192,27501,1,0,0:0:0:0:
256,192,27584,1,8,0:0:0:0:
256,192,27668,1,0,0:0:0:0:
256,192,27751,1,0,0:0:0:0:
256,192,27834,1,8,0:0:0:0:
256,192,28001,1,0,0:0:0:0:
256,192,28084,1,0,0:0:0:0:
256,192,28167,1,0,0:0:0:0:
256,192,28334,1,8,0:0:0:0:
256,192,28418,1,0,0:0:0:0:
256,192,28501,1,0,0:0:0:0:
256,192,28667,1,0,0:0:0:0:
256,192,28751,1,8,0:0:0:0:
256,192,28834,1,0,0:0:0:0:
256,192,28917,1,0,0:0:0:0:
256,192,29084,1,8,0:0:0:0:
256,192,29167,1,0,0:0:0:0:
256,192,29334,1,8,0:0:0:0:
256,192,29417,1,8,0:0:0:0:
256,192,29501,1,0,0:0:0:0:
256,192,29667,1,0,0:0:0:0:
256,192,29834,1,0,0:0:0:0:
256,192,29917,1,0,0:0:0:0:
256,192,30001,1,8,0:0:0:0:
256,192,30167,1,0,0:0:0:0:
256,192,30251,1,0,0:0:0:0:
224,192,30334,1,0,0:0:0:0:
256,192,30417,1,8,0:0:0:0:
256,192,30501,1,0,0:0:0:0:
224,192,30667,1,0,0:0:0:0:
224,192,30751,1,0,0:0:0:0:
224,192,30834,1,0,0:0:0:0:
224,192,31001,1,8,0:0:0:0:
224,192,31084,1,0,0:0:0:0:
224,192,31167,1,0,0:0:0:0:
224,192,31334,1,8,0:0:0:0:
224,192,31417,1,8,0:0:0:0:
224,192,31501,1,0,0:0:0:0:
224,192,31584,1,8,0:0:0:0:
224,192,31751,1,8,0:0:0:0:
224,192,31834,1,0,0:0:0:0:
224,192,32001,1,0,0:0:0:0:
224,192,32084,1,0,0:0:0:0:
224,192,32167,1,0,0:0:0:0:
224,192,32334,1,8,0:0:0:0:
224,192,32501,1,0,0:0:0:0:
192,192,32584,1,0,0:0:0:0:
224,192,32667,1,8,0:0:0:0:
224,192,32834,1,0,0:0:0:0:
224,192,32917,1,8,0:0:0:0:
224,192,33001,1,8,0:0:0:0:
192,192,33084,1,0,0:0:0:0:
192,192,33167,1,8,0:0:0:0:
256,192,33334,1,0,0:0:0:0:
256,192,33417,1,0,0:0:0:0:
256,192,33500,1,0,0:0:0:0:
256,192,33667,1,8,0:0:0:0:
224,224,33751,1,0,0:0:0:0:
256,192,33834,1,0,0:0:0:0:
256,192,34000,1,0,0:0:0:0:
256,192,34084,1,8,0:0:0:0:
256,192,34167,1,0,0:0:0:0:
256,192,34250,1,0,0:0:0:0:
256,192,34417,1,8,0:0:0:0:
256,192,34500,1,0,0:0:0:0:
256,192,34667,1,8,0:0:0:0:
256,192,34750,1,8,0:0:0:0:
256,192,34834,1,0,0:0:0:0:
256,192,35000,1,0,0:0:0:0:
256,192,35167,1,0,0:0:0:0:
256,192,35250,1,0,0:0:0:0:
256,192,35334,1,8,0:0:0:0:
256,192,35500,1,0,0:0:0:0:
256,192,35584,1,0,0:0:0:0:
224,192,35668,1,0,0:0:0:0:
256,192,35750,1,8,0:0:0:0:
256,192,35834,1,0,0:0:0:0:
256,192,36001,12,0,36501,0:0:0:0:
224,192,36668,5,8,0:0:0:0:
224,192,36751,1,8,0:0:0:0:
224,192,36834,1,0,0:0:0:0:
224,192,36918,1,8,0:0:0:0:
224,192,37084,1,8,0:0:0:0:
224,192,37168,1,0,0:0:0:0:
224,192,37334,1,12,0:0:0:0:
224,192,37668,1,8,0:0:0:0:
224,192,38001,1,8,0:0:0:0:
224,192,38334,1,8,0:0:0:0:
224,192,38668,1,8,0:0:0:0:
224,192,39001,1,8,0:0:0:0:
224,192,39334,1,8,0:0:0:0:
224,192,39668,1,8,0:0:0:0:
224,192,39834,1,8,0:0:0:0:
224,192,40001,1,8,0:0:0:0:
224,192,40334,1,8,0:0:0:0:
224,192,40668,1,8,0:0:0:0:
224,192,41001,1,8,0:0:0:0:
224,192,41334,1,8,0:0:0:0:
224,192,41668,1,8,0:0:0:0:
224,192,42001,1,8,0:0:0:0:
224,192,42334,1,8,0:0:0:0:
224,192,42501,1,8,0:0:0:0:
224,192,42668,1,8,0:0:0:0:
224,192,43001,1,8,0:0:0:0:
224,192,43335,1,8,0:0:0:0:
224,192,43668,1,8,0:0:0:0:
224,192,44001,1,8,0:0:0:0:
224,192,44335,1,8,0:0:0:0:
224,192,44668,1,8,0:0:0:0:
224,192,45001,1,8,0:0:0:0:
224,192,45168,1,8,0:0:0:0:
224,192,45335,1,8,0:0:0:0:
224,192,45668,1,8,0:0:0:0:
224,192,46002,1,8,0:0:0:0:
224,192,46335,1,8,0:0:0:0:
224,192,46668,1,8,0:0:0:0:
224,192,47002,1,8,0:0:0:0:
192,160,47168,1,8,0:0:0:0:
224,192,47335,1,8,0:0:0:0:
224,192,47418,1,8,0:0:0:0:
224,192,47584,1,8,0:0:0:0:
228,181,47668,1,0,0:0:0:0:
224,192,47751,1,8,0:0:0:0:
224,192,47834,1,8,0:0:0:0:
224,192,48001,1,4,0:0:0:0:
224,192,48334,1,8,0:0:0:0:
224,192,48501,1,0,0:0:0:0:
224,192,48834,1,0,0:0:0:0:
192,192,49001,1,8,0:0:0:0:
192,192,49168,1,0,0:0:0:0:
192,192,49501,1,0,0:0:0:0:
192,192,49668,1,8,0:0:0:0:
192,192,49834,1,0,0:0:0:0:
192,192,50001,1,0,0:0:0:0:
224,192,50334,1,8,0:0:0:0:
224,192,50668,1,4,0:0:0:0:
224,192,51001,1,8,0:0:0:0:
224,192,51168,1,0,0:0:0:0:
224,192,51501,1,0,0:0:0:0:
224,192,51668,1,8,0:0:0:0:
224,192,51834,1,0,0:0:0:0:
224,192,52168,1,0,0:0:0:0:
224,192,52334,1,8,0:0:0:0:
224,192,52501,1,0,0:0:0:0:
224,192,52668,1,0,0:0:0:0:
224,192,52751,1,0,0:0:0:0:
224,192,52834,1,0,0:0:0:0:
224,192,53001,1,8,0:0:0:0:
192,192,53334,1,4,0:0:0:0:
192,192,53501,1,0,0:0:0:0:
192,192,53584,1,0,0:0:0:0:
192,192,53668,1,8,0:0:0:0:
192,192,53834,1,0,0:0:0:0:
192,192,54168,1,8,0:0:0:0:
192,192,54251,1,8,0:0:0:0:
192,192,54334,1,0,0:0:0:0:
192,192,54501,1,8,0:0:0:0:
192,192,54834,1,0,0:0:0:0:
192,192,55001,1,8,0:0:0:0:
192,192,55168,1,0,0:0:0:0:
192,192,55334,1,0,0:0:0:0:
192,192,55418,1,0,0:0:0:0:
192,192,55501,1,8,0:0:0:0:
192,192,55668,1,8,0:0:0:0:
192,192,55751,1,8,0:0:0:0:
192,192,55834,1,0,0:0:0:0:
192,192,56001,1,4,0:0:0:0:
192,192,56168,1,0,0:0:0:0:
192,192,56251,1,0,0:0:0:0:
192,192,56334,1,8,0:0:0:0:
192,192,56501,1,0,0:0:0:0:
192,192,56668,1,0,0:0:0:0:
192,192,56834,1,8,0:0:0:0:
192,192,56918,1,8,0:0:0:0:
192,192,57001,1,0,0:0:0:0:
192,192,57084,1,0,0:0:0:0:
192,192,57168,1,8,0:0:0:0:
192,192,57501,1,8,0:0:0:0:
192,192,57668,1,0,0:0:0:0:
192,192,57834,1,8,0:0:0:0:
192,192,58001,1,0,0:0:0:0:
192,192,58168,1,0,0:0:0:0:
192,192,58334,1,0,0:0:0:0:
192,192,58418,1,0,0:0:0:0:
192,192,58501,1,8,0:0:0:0:
192,192,58668,1,4,0:0:0:0:
224,160,58834,1,0,0:0:0:0:
224,192,58917,1,0,0:0:0:0:
224,192,59000,1,8,0:0:0:0:
224,192,59167,1,8,0:0:0:0:
224,192,59334,1,8,0:0:0:0:
224,192,59417,1,8,0:0:0:0:
224,192,59500,1,0,0:0:0:0:
128,128,59667,1,0,0:0:0:0:
256,192,59751,1,0,0:0:0:0:
224,192,59834,1,8,0:0:0:0:
128,128,60000,1,0,0:0:0:0:
192,160,60084,1,0,0:0:0:0:
160,160,60168,1,8,0:0:0:0:
128,128,60251,1,8,0:0:0:0:
128,128,60334,1,0,0:0:0:0:
192,160,60418,1,8,0:0:0:0:
128,128,60500,1,8,0:0:0:0:
128,128,60667,1,0,0:0:0:0:
128,128,60834,1,0,0:0:0:0:
128,128,61000,1,8,0:0:0:0:
128,128,61084,1,0,0:0:0:0:
128,128,61167,1,8,0:0:0:0:
256,160,61251,1,8,0:0:0:0:
128,128,61334,1,0,0:0:0:0:
128,128,61500,1,0,0:0:0:0:
128,128,61584,1,0,0:0:0:0:
128,128,61667,1,8,0:0:0:0:
128,128,61834,1,0,0:0:0:0:
128,128,62000,1,8,0:0:0:0:
128,128,62084,1,0,0:0:0:0:
128,128,62167,1,8,0:0:0:0:
224,160,62334,1,0,0:0:0:0:
224,160,62500,1,8,0:0:0:0:
224,160,62584,1,8,0:0:0:0:
224,160,62667,1,0,0:0:0:0:
224,160,62750,1,0,0:0:0:0:
224,160,62834,1,8,0:0:0:0:
256,160,62917,1,0,0:0:0:0:
224,160,63000,1,8,0:0:0:0:
224,160,63167,1,8,0:0:0:0:
224,160,63250,1,8,0:0:0:0:
224,160,63334,1,8,0:0:0:0:
224,160,63500,1,8,0:0:0:0:
224,160,63584,1,8,0:0:0:0:
224,160,63667,1,0,0:0:0:0:
224,160,63750,1,8,0:0:0:0:
224,160,63834,1,0,0:0:0:0:
224,160,64001,1,4,0:0:0:0:
224,160,64168,1,0,0:0:0:0:
224,160,64251,1,0,0:0:0:0:
224,160,64334,1,8,0:0:0:0:
224,160,64501,1,0,0:0:0:0:
224,160,64668,1,8,0:0:0:0:
224,160,64751,1,8,0:0:0:0:
224,160,64835,1,0,0:0:0:0:
224,160,65001,1,0,0:0:0:0:
224,160,65168,1,8,0:0:0:0:
192,160,65251,1,8,0:0:0:0:
224,160,65335,1,0,0:0:0:0:
224,160,65501,1,0,0:0:0:0:
224,160,65585,1,8,0:0:0:0:
224,160,65668,1,0,0:0:0:0:
224,160,65751,1,0,0:0:0:0:
224,160,65835,1,8,0:0:0:0:
224,160,66001,1,0,0:0:0:0:
224,160,66168,1,0,0:0:0:0:
224,160,66335,1,8,0:0:0:0:
224,160,66418,1,8,0:0:0:0:
224,160,66501,1,0,0:0:0:0:
288,192,66668,1,4,0:0:0:0:
256,192,66835,1,0,0:0:0:0:
224,192,66918,1,8,0:0:0:0:
224,192,67001,1,8,0:0:0:0:
256,192,67168,1,0,0:0:0:0:
256,192,67335,1,8,0:0:0:0:
256,192,67418,1,0,0:0:0:0:
256,192,67501,1,8,0:0:0:0:
256,192,67668,1,0,0:0:0:0:
256,192,67751,1,0,0:0:0:0:
256,192,67835,1,8,0:0:0:0:
256,192,68001,1,0,0:0:0:0:
256,192,68085,1,0,0:0:0:0:
256,192,68168,1,8,0:0:0:0:
256,192,68251,1,0,0:0:0:0:
256,192,68335,1,8,0:0:0:0:
256,192,68418,1,8,0:0:0:0:
256,192,68501,1,0,0:0:0:0:
256,192,68585,1,0,0:0:0:0:
256,192,68668,1,8,0:0:0:0:
256,192,69001,1,0,0:0:0:0:
256,192,69168,1,8,0:0:0:0:
256,192,69251,1,8,0:0:0:0:
256,192,69334,1,0,0:0:0:0:
256,192,69418,1,0,0:0:0:0:
256,192,69501,1,0,0:0:0:0:
256,192,69668,1,8,0:0:0:0:
256,192,69834,1,0,0:0:0:0:
256,192,69918,1,0,0:0:0:0:
256,192,70001,1,8,0:0:0:0:
256,192,70168,1,0,0:0:0:0:
256,192,70251,1,8,0:0:0:0:
256,192,70335,1,0,0:0:0:0:
256,192,70418,1,0,0:0:0:0:
256,192,70501,1,8,0:0:0:0:
256,192,70668,1,0,0:0:0:0:
256,192,70751,1,0,0:0:0:0:
256,192,70834,1,0,0:0:0:0:
256,192,71001,1,8,0:0:0:0:
256,192,71085,1,0,0:0:0:0:
256,192,71168,1,0,0:0:0:0:
256,192,71334,1,8,0:0:0:0:
256,192,71418,1,8,0:0:0:0:
256,192,71501,1,0,0:0:0:0:
256,192,71584,1,8,0:0:0:0:
256,192,71751,1,8,0:0:0:0:
256,192,71834,1,0,0:0:0:0:
256,192,72001,1,8,0:0:0:0:
256,192,72084,1,8,0:0:0:0:
256,192,72168,1,0,0:0:0:0:
256,192,72334,1,0,0:0:0:0:
256,192,72501,1,0,0:0:0:0:
256,192,72584,1,0,0:0:0:0:
256,192,72668,1,8,0:0:0:0:
256,192,72834,1,0,0:0:0:0:
256,192,72918,1,0,0:0:0:0:
224,192,73001,1,0,0:0:0:0:
256,192,73084,1,8,0:0:0:0:
256,192,73168,1,0,0:0:0:0:
224,192,73334,1,0,0:0:0:0:
224,192,73418,1,0,0:0:0:0:
224,192,73501,1,0,0:0:0:0:
224,192,73668,1,8,0:0:0:0:
224,192,73751,1,0,0:0:0:0:
224,192,73834,1,0,0:0:0:0:
224,192,74001,1,8,0:0:0:0:
224,192,74084,1,0,0:0:0:0:
224,192,74168,1,0,0:0:0:0:
224,192,74251,1,8,0:0:0:0:
224,192,74418,1,8,0:0:0:0:
224,192,74501,1,0,0:0:0:0:
224,192,74668,1,0,0:0:0:0:
224,192,74751,1,0,0:0:0:0:
224,192,74834,1,0,0:0:0:0:
224,192,74918,1,0,0:0:0:0:
224,192,75001,1,8,0:0:0:0:
224,192,75168,1,0,0:0:0:0:
192,192,75251,1,0,0:0:0:0:
224,192,75334,1,8,0:0:0:0:
224,192,75501,1,0,0:0:0:0:
224,192,75584,1,8,0:0:0:0:
224,192,75668,1,8,0:0:0:0:
192,192,75751,1,0,0:0:0:0:
192,192,75834,1,8,0:0:0:0:
256,192,76001,1,0,0:0:0:0:
256,192,76084,1,0,0:0:0:0:
256,192,76167,1,0,0:0:0:0:
224,192,76251,1,0,0:0:0:0:
256,192,76334,1,8,0:0:0:0:
224,224,76418,1,0,0:0:0:0:
256,192,76501,1,0,0:0:0:0:
256,192,76668,1,8,0:0:0:0:
256,192,76751,1,8,0:0:0:0:
256,192,76834,1,0,0:0:0:0:
256,192,76917,1,0,0:0:0:0:
256,192,77001,1,0,0:0:0:0:
256,192,77084,1,8,0:0:0:0:
256,192,77168,1,0,0:0:0:0:
204,218,77334,1,8,0:0:0:0:
206,218,77418,1,8,0:0:0:0:
206,218,77501,1,0,0:0:0:0:
206,218,77668,1,0,0:0:0:0:
205,219,77751,1,8,0:0:0:0:
206,218,77834,1,0,0:0:0:0:
205,220,77918,1,0,0:0:0:0:
205,220,78001,1,8,0:0:0:0:
204,218,78168,1,8,0:0:0:0:
204,218,78251,1,0,0:0:0:0:
204,218,78334,1,0,0:0:0:0:
204,218,78418,1,8,0:0:0:0:
204,218,78501,1,0,0:0:0:0:
204,218,78668,1,8,0:0:0:0:
204,218,78918,1,0,0:0:0:0:
182,153,79334,2,0,L|325:157,2,140.000000596046
