osu file format v12

[General]
AudioFilename: LOUDER!! LOUDER!!!! LOUDER!!!!!!.mp3
AudioLeadIn: 0
PreviewTime: 26648
Countdown: 0
SampleSet: Normal
StackLeniency: 0.7
Mode: 1
LetterboxInBreaks: 0
WidescreenStoryboard: 1

[Editor]
DistanceSpacing: 1.5
BeatDivisor: 6
GridSize: 32
TimelineZoom: 1

[Metadata]
Title:LOUDER!! LOUDER!!!! LOUDER!!!!!!
TitleUnicode:LOUDER!! LOUDER!!!! LOUDER!!!!!!
Artist:The Quick Brown Fox
ArtistUnicode:The Quick Brown Fox
Creator:DakeDekaane
Version:Oni
Source:
Tags:Renard Lapfox TQBF
BeatmapID:339493
BeatmapSetID:135532

[Difficulty]
HPDrainRate:6
CircleSize:5
OverallDifficulty:6
ApproachRate:5
SliderMultiplier:0.70000000596046
SliderTickRate:1

[Events]
//Background and Video events
0,0,"RedBG.jpg",0,0
//Break Periods
//Storyboard Layer 0 (Background)
//Storyboard Layer 1 (Fail)
//Storyboard Layer 2 (Pass)
//Storyboard Layer 3 (Foreground)
//Storyboard Sound Samples
//Background Colour Transformations
3,100,163,162,255

[TimingPoints]
674,166.666666666667,4,1,0,70,1,0
69340,-100,4,1,0,80,0,1
74674,-100,4,1,0,90,0,1
78674,-100,4,1,0,70,0,0
80007,-100,4,1,0,70,0,0

[Colours]
Combo1 : 93,93,93
Combo2 : 234,0,0

[HitObjects]
256,192,5340,5,0,0:0:0:0:
256,192,5424,1,0,0:0:0:0:
256,192,5507,1,0,0:0:0:0:
256,192,5674,1,8,0:0:0:0:
256,192,5840,1,0,0:0:0:0:
256,192,5924,1,0,0:0:0:0:
256,192,6007,1,8,0:0:0:0:
256,192,6174,1,8,0:0:0:0:
256,192,6257,1,0,0:0:0:0:
256,192,6340,1,0,0:0:0:0:
256,192,6424,1,0,0:0:0:0:
256,192,6507,1,8,0:0:0:0:
256,192,6674,1,0,0:0:0:0:
256,192,6757,1,0,0:0:0:0:
256,192,6840,1,0,0:0:0:0:
256,192,7007,1,8,0:0:0:0:
256,192,7090,1,8,0:0:0:0:
256,192,7174,1,0,0:0:0:0:
256,192,7257,1,0,0:0:0:0:
256,192,7340,1,0,0:0:0:0:
256,192,7424,1,8,0:0:0:0:
256,192,7590,1,8,0:0:0:0:
256,192,7757,1,8,0:0:0:0:
256,192,7840,1,0,0:0:0:0:
256,192,8007,1,8,0:0:0:0:
256,192,8090,1,8,0:0:0:0:
256,192,8174,1,0,0:0:0:0:
256,192,8340,1,8,0:0:0:0:
256,192,8507,1,0,0:0:0:0:
256,192,8590,1,0,0:0:0:0:
256,192,8674,1,8,0:0:0:0:
256,192,8840,1,8,0:0:0:0:
256,192,8924,1,0,0:0:0:0:
256,192,9007,1,0,0:0:0:0:
256,192,9090,1,8,0:0:0:0:
256,192,9174,1,0,0:0:0:0:
256,192,9340,1,0,0:0:0:0:
256,192,9424,1,0,0:0:0:0:
256,192,9507,1,0,0:0:0:0:
256,192,9674,1,8,0:0:0:0:
256,192,9757,1,0,0:0:0:0:
256,192,9840,1,0,0:0:0:0:
256,192,10007,1,0,0:0:0:0:
256,192,10090,1,8,0:0:0:0:
256,192,10174,1,0,0:0:0:0:
256,192,10257,1,8,0:0:0:0:
256,192,10340,1,0,0:0:0:0:
256,192,10424,1,8,0:0:0:0:
256,192,10507,1,0,0:0:0:0:
256,192,10674,1,0,0:0:0:0:
256,192,10757,1,0,0:0:0:0:
256,192,10840,1,0,0:0:0:0:
256,192,11007,1,8,0:0:0:0:
256,192,11174,1,0,0:0:0:0:
256,192,11257,1,0,0:0:0:0:
256,192,11340,1,8,0:0:0:0:
256,192,11507,1,8,0:0:0:0:
256,192,11590,1,0,0:0:0:0:
256,192,11757,1,0,0:0:0:0:
256,192,11840,1,8,0:0:0:0:
256,192,12007,1,0,0:0:0:0:
256,192,12090,1,0,0:0:0:0:
256,192,12174,1,0,0:0:0:0:
256,192,12340,1,8,0:0:0:0:
256,192,12424,1,0,0:0:0:0:
256,192,12507,1,0,0:0:0:0:
256,192,12590,1,0,0:0:0:0:
256,192,12674,1,8,0:0:0:0:
256,192,12757,1,8,0:0:0:0:
256,192,12924,1,8,0:0:0:0:
256,192,13090,1,8,0:0:0:0:
256,192,13174,1,0,0:0:0:0:
256,192,13340,1,8,0:0:0:0:
256,192,13424,1,8,0:0:0:0:
256,192,13507,1,0,0:0:0:0:
256,192,13674,1,8,0:0:0:0:
256,192,13840,1,0,0:0:0:0:
256,192,13924,1,0,0:0:0:0:
256,192,14007,1,8,0:0:0:0:
256,192,14174,1,8,0:0:0:0:
256,192,14257,1,0,0:0:0:0:
256,192,14424,1,0,0:0:0:0:
256,192,14507,1,8,0:0:0:0:
256,192,14674,1,4,0:0:0:0:
256,192,15007,1,4,0:0:0:0:
256,192,15340,8,0,15840,0:0:0:0:
256,192,16007,5,4,0:0:0:0:
256,192,16174,1,0,0:0:0:0:
256,192,16229,1,0,0:0:0:0:
256,192,16285,1,8,0:0:0:0:
256,192,16340,1,8,0:0:0:0:
256,192,16507,1,8,0:0:0:0:
256,192,16674,1,8,0:0:0:0:
256,192,16757,1,0,0:0:0:0:
256,192,16840,1,0,0:0:0:0:
256,192,17007,1,0,0:0:0:0:
256,192,17174,1,8,0:0:0:0:
256,192,17340,1,0,0:0:0:0:
256,192,17507,1,8,0:0:0:0:
256,192,17674,1,8,0:0:0:0:
256,192,17840,1,0,0:0:0:0:
256,192,18007,1,8,0:0:0:0:
256,192,18090,1,8,0:0:0:0:
256,192,18174,1,0,0:0:0:0:
256,192,18340,1,8,0:0:0:0:
256,192,18396,1,8,0:0:0:0:
256,192,18451,1,0,0:0:0:0:
256,192,18507,1,0,0:0:0:0:
256,192,18674,1,4,0:0:0:0:
256,192,18840,1,0,0:0:0:0:
256,192,18896,1,0,0:0:0:0:
256,192,18951,1,8,0:0:0:0:
256,192,19007,1,8,0:0:0:0:
256,192,19174,1,0,0:0:0:0:
256,192,19340,1,8,0:0:0:0:
256,192,19424,1,0,0:0:0:0:
256,192,19507,1,8,0:0:0:0:
256,192,19674,1,0,0:0:0:0:
256,192,19840,1,8,0:0:0:0:
256,192,20007,1,0,0:0:0:0:
256,192,20174,1,0,0:0:0:0:
256,192,20257,1,0,0:0:0:0:
256,192,20340,1,8,0:0:0:0:
256,192,20507,1,0,0:0:0:0:
256,192,20590,1,0,0:0:0:0:
256,192,20674,1,8,0:0:0:0:
256,192,20840,1,8,0:0:0:0:
256,192,21007,1,8,0:0:0:0:
256,192,21062,1,8,0:0:0:0:
256,192,21118,1,0,0:0:0:0:
256,192,21174,1,0,0:0:0:0:
256,192,21340,1,4,0:0:0:0:
256,192,21507,1,0,0:0:0:0:
256,192,21562,1,0,0:0:0:0:
256,192,21618,1,8,0:0:0:0:
256,192,21674,1,8,0:0:0:0:
256,192,21840,1,8,0:0:0:0:
256,192,22007,1,8,0:0:0:0:
256,192,22090,1,0,0:0:0:0:
256,192,22174,1,0,0:0:0:0:
256,192,22340,1,0,0:0:0:0:
256,192,22507,1,8,0:0:0:0:
256,192,22674,1,0,0:0:0:0:
256,192,22840,1,8,0:0:0:0:
256,192,22924,1,8,0:0:0:0:
256,192,23007,1,8,0:0:0:0:
256,192,23174,1,8,0:0:0:0:
256,192,23340,1,0,0:0:0:0:
256,192,23507,1,8,0:0:0:0:
256,192,23674,1,8,0:0:0:0:
256,192,23729,1,8,0:0:0:0:
256,192,23785,1,0,0:0:0:0:
256,192,23840,1,0,0:0:0:0:
256,192,24007,1,4,0:0:0:0:
256,192,24174,1,0,0:0:0:0:
256,192,24229,1,0,0:0:0:0:
256,192,24285,1,8,0:0:0:0:
256,192,24340,1,8,0:0:0:0:
256,192,24507,1,0,0:0:0:0:
256,192,24674,1,8,0:0:0:0:
256,192,24757,1,0,0:0:0:0:
256,192,24840,1,8,0:0:0:0:
256,192,25007,1,0,0:0:0:0:
256,192,25174,1,8,0:0:0:0:
256,192,25340,1,0,0:0:0:0:
256,192,25424,1,0,0:0:0:0:
256,192,25507,1,0,0:0:0:0:
256,192,25590,1,0,0:0:0:0:
256,192,25674,1,8,0:0:0:0:
256,192,25757,1,0,0:0:0:0:
256,192,25840,1,8,0:0:0:0:
256,192,25896,1,8,0:0:0:0:
256,192,25951,1,8,0:0:0:0:
256,192,26007,1,8,0:0:0:0:
256,192,26174,1,8,0:0:0:0:
256,192,26340,1,0,0:0:0:0:
256,192,26507,1,0,0:0:0:0:
256,192,26562,1,0,0:0:0:0:
256,192,26618,1,0,0:0:0:0:
256,192,26674,1,0,0:0:0:0:
256,192,26840,1,0,0:0:0:0:
256,192,27007,1,8,0:0:0:0:
256,192,27174,1,0,0:0:0:0:
256,192,27257,1,0,0:0:0:0:
256,192,27340,1,8,0:0:0:0:
256,192,27507,1,8,0:0:0:0:
256,192,27590,1,0,0:0:0:0:
256,192,27674,1,0,0:0:0:0:
256,192,27757,1,0,0:0:0:0:
256,192,27840,1,8,0:0:0:0:
256,192,28007,1,0,0:0:0:0:
256,192,28090,1,0,0:0:0:0:
256,192,28174,1,0,0:0:0:0:
256,192,28340,1,8,0:0:0:0:
256,192,28424,1,8,0:0:0:0:
256,192,28507,1,0,0:0:0:0:
256,192,28590,1,0,0:0:0:0:
256,192,28674,1,0,0:0:0:0:
256,192,28757,1,8,0:0:0:0:
256,192,28924,1,8,0:0:0:0:
256,192,29090,1,8,0:0:0:0:
256,192,29174,1,0,0:0:0:0:
256,192,29340,1,8,0:0:0:0:
256,192,29424,1,8,0:0:0:0:
256,192,29507,1,0,0:0:0:0:
256,192,29674,1,8,0:0:0:0:
256,192,29840,1,0,0:0:0:0:
256,192,29924,1,0,0:0:0:0:
256,192,30007,1,8,0:0:0:0:
256,192,30174,1,8,0:0:0:0:
256,192,30257,1,0,0:0:0:0:
256,192,30340,1,0,0:0:0:0:
256,192,30424,1,8,0:0:0:0:
256,192,30507,1,0,0:0:0:0:
256,192,30674,1,0,0:0:0:0:
256,192,30757,1,0,0:0:0:0:
256,192,30840,1,0,0:0:0:0:
256,192,31007,1,8,0:0:0:0:
256,192,31090,1,0,0:0:0:0:
256,192,31174,1,0,0:0:0:0:
256,192,31340,1,0,0:0:0:0:
256,192,31424,1,8,0:0:0:0:
256,192,31507,1,0,0:0:0:0:
256,192,31590,1,8,0:0:0:0:
256,192,31674,1,0,0:0:0:0:
256,192,31757,1,8,0:0:0:0:
256,192,31840,1,0,0:0:0:0:
256,192,32007,1,0,0:0:0:0:
256,192,32090,1,0,0:0:0:0:
256,192,32174,1,0,0:0:0:0:
256,192,32340,1,8,0:0:0:0:
256,192,32507,1,0,0:0:0:0:
256,192,32590,1,0,0:0:0:0:
256,192,32674,1,8,0:0:0:0:
256,192,32840,1,8,0:0:0:0:
256,192,32924,1,0,0:0:0:0:
256,192,33090,1,0,0:0:0:0:
256,192,33174,1,8,0:0:0:0:
256,192,33340,1,0,0:0:0:0:
256,192,33424,1,0,0:0:0:0:
256,192,33507,1,0,0:0:0:0:
256,192,33674,1,8,0:0:0:0:
256,192,33757,1,0,0:0:0:0:
256,192,33840,1,0,0:0:0:0:
256,192,33924,1,0,0:0:0:0:
256,192,34007,1,8,0:0:0:0:
256,192,34090,1,8,0:0:0:0:
256,192,34257,1,8,0:0:0:0:
256,192,34424,1,8,0:0:0:0:
256,192,34507,1,0,0:0:0:0:
256,192,34674,1,8,0:0:0:0:
256,192,34757,1,8,0:0:0:0:
256,192,34840,1,0,0:0:0:0:
256,192,35007,1,8,0:0:0:0:
256,192,35174,1,0,0:0:0:0:
256,192,35257,1,0,0:0:0:0:
256,192,35340,1,8,0:0:0:0:
256,192,35507,1,8,0:0:0:0:
256,192,35590,1,0,0:0:0:0:
256,192,35757,1,0,0:0:0:0:
256,192,35840,1,8,0:0:0:0:
256,192,36007,2,0,L|416:192,1,140.000001192092
256,192,36674,8,0,37174,0:0:0:0:
256,192,37340,5,0,0:0:0:0:
256,192,37674,1,8,0:0:0:0:
256,192,38007,1,8,0:0:0:0:
256,192,38340,1,8,0:0:0:0:
256,192,38674,1,8,0:0:0:0:
256,192,39007,1,8,0:0:0:0:
256,192,39340,1,8,0:0:0:0:
256,192,39674,1,8,0:0:0:0:
256,192,39840,1,8,0:0:0:0:
256,192,40007,1,8,0:0:0:0:
256,192,40340,1,8,0:0:0:0:
256,192,40674,1,8,0:0:0:0:
256,192,41007,1,8,0:0:0:0:
256,192,41340,1,8,0:0:0:0:
256,192,41674,1,8,0:0:0:0:
256,192,42007,1,8,0:0:0:0:
256,192,42340,1,8,0:0:0:0:
256,192,42507,1,8,0:0:0:0:
256,192,42674,1,8,0:0:0:0:
256,192,43007,1,8,0:0:0:0:
256,192,43340,1,8,0:0:0:0:
256,192,43674,1,8,0:0:0:0:
256,192,44007,1,8,0:0:0:0:
256,192,44340,1,8,0:0:0:0:
256,192,44674,1,8,0:0:0:0:
256,192,45007,1,8,0:0:0:0:
256,192,45174,1,8,0:0:0:0:
256,192,45340,1,8,0:0:0:0:
256,192,45674,1,8,0:0:0:0:
256,192,46007,1,8,0:0:0:0:
256,192,46340,1,8,0:0:0:0:
256,192,46674,1,8,0:0:0:0:
256,192,47340,8,0,47840,0:0:0:0:
256,192,48007,5,0,0:0:0:0:
256,192,48090,1,0,0:0:0:0:
256,192,48174,1,0,0:0:0:0:
256,192,48340,1,8,0:0:0:0:
256,192,48507,1,0,0:0:0:0:
256,192,48674,1,0,0:0:0:0:
256,192,48757,1,0,0:0:0:0:
256,192,48840,1,0,0:0:0:0:
256,192,49007,1,8,0:0:0:0:
256,192,49174,1,0,0:0:0:0:
256,192,49340,1,0,0:0:0:0:
256,192,49424,1,0,0:0:0:0:
256,192,49507,1,0,0:0:0:0:
256,192,49674,1,8,0:0:0:0:
256,192,49840,1,0,0:0:0:0:
256,192,50007,1,0,0:0:0:0:
256,192,50090,1,0,0:0:0:0:
256,192,50174,1,0,0:0:0:0:
256,192,50340,1,8,0:0:0:0:
256,192,50674,1,0,0:0:0:0:
256,192,50757,1,0,0:0:0:0:
256,192,50840,1,0,0:0:0:0:
256,192,51007,1,8,0:0:0:0:
256,192,51174,1,0,0:0:0:0:
256,192,51340,1,0,0:0:0:0:
256,192,51424,1,0,0:0:0:0:
256,192,51507,1,0,0:0:0:0:
256,192,51674,1,8,0:0:0:0:
256,192,51840,1,0,0:0:0:0:
256,192,52007,1,0,0:0:0:0:
256,192,52090,1,0,0:0:0:0:
256,192,52174,1,0,0:0:0:0:
256,192,52340,1,8,0:0:0:0:
256,192,52507,1,0,0:0:0:0:
256,192,52674,1,0,0:0:0:0:
256,192,52757,1,0,0:0:0:0:
256,192,52840,1,0,0:0:0:0:
256,192,53007,1,8,0:0:0:0:
256,192,53340,1,0,0:0:0:0:
256,192,53507,1,8,0:0:0:0:
256,192,53590,1,8,0:0:0:0:
256,192,53674,1,0,0:0:0:0:
256,192,53840,1,0,0:0:0:0:
256,192,54007,1,0,0:0:0:0:
256,192,54090,1,0,0:0:0:0:
256,192,54174,1,0,0:0:0:0:
256,192,54340,1,8,0:0:0:0:
256,192,54507,1,8,0:0:0:0:
256,192,54674,1,0,0:0:0:0:
256,192,54757,1,0,0:0:0:0:
256,192,54840,1,0,0:0:0:0:
256,192,55007,1,8,0:0:0:0:
256,192,55174,1,8,0:0:0:0:
256,192,55340,1,0,0:0:0:0:
256,192,55507,1,8,0:0:0:0:
256,192,55674,1,0,0:0:0:0:
256,192,55840,1,8,0:0:0:0:
256,192,56007,1,0,0:0:0:0:
256,192,56174,1,8,0:0:0:0:
256,192,56257,1,8,0:0:0:0:
256,192,56340,1,0,0:0:0:0:
256,192,56507,1,0,0:0:0:0:
256,192,56674,1,0,0:0:0:0:
256,192,56757,1,0,0:0:0:0:
256,192,56840,1,0,0:0:0:0:
256,192,57007,1,8,0:0:0:0:
256,192,57174,1,0,0:0:0:0:
256,192,58674,1,4,0:0:0:0:
256,192,58840,1,0,0:0:0:0:
256,192,58896,1,0,0:0:0:0:
256,192,58951,1,8,0:0:0:0:
256,192,59007,1,8,0:0:0:0:
256,192,59174,1,8,0:0:0:0:
256,192,59340,1,8,0:0:0:0:
256,192,59424,1,0,0:0:0:0:
256,192,59507,1,0,0:0:0:0:
256,192,59674,1,0,0:0:0:0:
256,192,59757,1,0,0:0:0:0:
256,192,59840,1,8,0:0:0:0:
256,192,59924,1,0,0:0:0:0:
256,192,60007,1,0,0:0:0:0:
256,192,60174,1,8,0:0:0:0:
256,192,60257,1,0,0:0:0:0:
256,192,60340,1,0,0:0:0:0:
256,192,60507,1,8,0:0:0:0:
256,192,60590,1,0,0:0:0:0:
256,192,60674,1,0,0:0:0:0:
256,192,60840,1,8,0:0:0:0:
256,192,61007,1,8,0:0:0:0:
256,192,61090,1,0,0:0:0:0:
256,192,61174,1,0,0:0:0:0:
256,192,61257,1,0,0:0:0:0:
256,192,61340,1,8,0:0:0:0:
256,192,61507,1,0,0:0:0:0:
256,192,61562,1,0,0:0:0:0:
256,192,61618,1,8,0:0:0:0:
256,192,61674,1,8,0:0:0:0:
256,192,61840,1,0,0:0:0:0:
256,192,62007,1,8,0:0:0:0:
256,192,62090,1,0,0:0:0:0:
256,192,62174,1,8,0:0:0:0:
256,192,62340,1,0,0:0:0:0:
256,192,62507,1,8,0:0:0:0:
256,192,62562,1,8,0:0:0:0:
256,192,62618,1,0,0:0:0:0:
256,192,62674,1,0,0:0:0:0:
256,192,62840,1,8,0:0:0:0:
256,192,62924,1,8,0:0:0:0:
256,192,63007,1,0,0:0:0:0:
256,192,63174,1,8,0:0:0:0:
256,192,63257,1,8,0:0:0:0:
256,192,63340,1,8,0:0:0:0:
256,192,63507,1,8,0:0:0:0:
256,192,63674,1,0,0:0:0:0:
256,192,63757,1,8,0:0:0:0:
256,192,63840,1,0,0:0:0:0:
256,192,63896,1,0,0:0:0:0:
256,192,63951,1,0,0:0:0:0:
256,192,64007,1,0,0:0:0:0:
256,192,64174,1,0,0:0:0:0:
256,192,64257,1,0,0:0:0:0:
256,192,64340,1,8,0:0:0:0:
256,192,64424,1,0,0:0:0:0:
256,192,64507,1,0,0:0:0:0:
256,192,64590,1,0,0:0:0:0:
256,192,64674,1,8,0:0:0:0:
256,192,64757,1,0,0:0:0:0:
256,192,64840,1,0,0:0:0:0:
256,192,64924,1,0,0:0:0:0:
256,192,65007,1,0,0:0:0:0:
256,192,65090,1,0,0:0:0:0:
256,192,65174,1,0,0:0:0:0:
256,192,65229,1,0,0:0:0:0:
256,192,65285,1,0,0:0:0:0:
256,192,65340,1,0,0:0:0:0:
256,192,65507,1,8,0:0:0:0:
256,192,65590,1,0,0:0:0:0:
256,192,65674,1,0,0:0:0:0:
256,192,65757,1,0,0:0:0:0:
256,192,65840,1,8,0:0:0:0:
256,192,65896,1,8,0:0:0:0:
256,192,65951,1,0,0:0:0:0:
256,192,66007,1,0,0:0:0:0:
256,192,66174,1,8,0:0:0:0:
256,192,66257,1,0,0:0:0:0:
256,192,66340,1,8,0:0:0:0:
256,192,66396,1,8,0:0:0:0:
256,192,66451,1,0,0:0:0:0:
256,192,66507,1,0,0:0:0:0:
256,192,66674,1,8,0:0:0:0:
256,192,66840,1,8,0:0:0:0:
256,192,66924,1,0,0:0:0:0:
256,192,67007,1,8,0:0:0:0:
256,192,67174,1,0,0:0:0:0:
256,192,67257,1,0,0:0:0:0:
256,192,67340,1,8,0:0:0:0:
256,192,67424,1,8,0:0:0:0:
256,192,67507,1,0,0:0:0:0:
256,192,67590,1,0,0:0:0:0:
256,192,67674,1,0,0:0:0:0:
256,192,67729,1,0,0:0:0:0:
256,192,67785,1,8,0:0:0:0:
256,192,67840,1,8,0:0:0:0:
256,192,68007,1,0,0:0:0:0:
256,192,68090,1,0,0:0:0:0:
256,192,68174,1,0,0:0:0:0:
256,192,68257,1,0,0:0:0:0:
256,192,68340,1,8,0:0:0:0:
256,192,68424,1,0,0:0:0:0:
256,192,68507,1,8,0:0:0:0:
256,192,68562,1,8,0:0:0:0:
256,192,68618,1,8,0:0:0:0:
256,192,68674,1,8,0:0:0:0:
256,192,68840,1,8,0:0:0:0:
256,192,69007,1,0,0:0:0:0:
256,192,69174,1,0,0:0:0:0:
256,192,69229,1,0,0:0:0:0:
256,192,69285,1,0,0:0:0:0:
256,192,69340,1,0,0:0:0:0:
256,192,69507,1,0,0:0:0:0:
256,192,69590,1,0,0:0:0:0:
256,192,69674,1,8,0:0:0:0:
256,192,69840,1,0,0:0:0:0:
256,192,69924,1,0,0:0:0:0:
256,192,70007,1,8,0:0:0:0:
256,192,70174,1,8,0:0:0:0:
256,192,70257,1,0,0:0:0:0:
256,192,70340,1,0,0:0:0:0:
256,192,70424,1,0,0:0:0:0:
256,192,70507,1,8,0:0:0:0:
256,192,70674,1,0,0:0:0:0:
256,192,70757,1,0,0:0:0:0:
256,192,70840,1,0,0:0:0:0:
256,192,70924,1,0,0:0:0:0:
256,192,71007,1,8,0:0:0:0:
256,192,71090,1,8,0:0:0:0:
256,192,71174,1,0,0:0:0:0:
256,192,71340,1,0,0:0:0:0:
256,192,71424,1,8,0:0:0:0:
256,192,71507,1,0,0:0:0:0:
256,192,71590,1,8,0:0:0:0:
256,192,71674,1,0,0:0:0:0:
256,192,71757,1,8,0:0:0:0:
256,192,71840,1,0,0:0:0:0:
256,192,72007,1,8,0:0:0:0:
256,192,72090,1,8,0:0:0:0:
256,192,72174,1,0,0:0:0:0:
256,192,72340,1,8,0:0:0:0:
256,192,72424,1,0,0:0:0:0:
256,192,72507,1,0,0:0:0:0:
256,192,72590,1,0,0:0:0:0:
256,192,72674,1,8,0:0:0:0:
256,192,72840,1,8,0:0:0:0:
256,192,72924,1,0,0:0:0:0:
256,192,73007,1,0,0:0:0:0:
256,192,73090,1,8,0:0:0:0:
256,192,73174,1,0,0:0:0:0:
256,192,73340,1,0,0:0:0:0:
256,192,73424,1,0,0:0:0:0:
256,192,73507,1,0,0:0:0:0:
256,192,73590,1,0,0:0:0:0:
256,192,73674,1,8,0:0:0:0:
256,192,73757,1,8,0:0:0:0:
256,192,73840,1,0,0:0:0:0:
256,192,74007,1,0,0:0:0:0:
256,192,74090,1,8,0:0:0:0:
256,192,74174,1,0,0:0:0:0:
256,192,74257,1,8,0:0:0:0:
256,192,74340,1,0,0:0:0:0:
256,192,74424,1,8,0:0:0:0:
256,192,74507,1,0,0:0:0:0:
256,192,74674,1,0,0:0:0:0:
256,192,74757,1,0,0:0:0:0:
256,192,74840,1,0,0:0:0:0:
256,192,74924,1,0,0:0:0:0:
256,192,75007,1,8,0:0:0:0:
256,192,75090,1,8,0:0:0:0:
256,192,75174,1,0,0:0:0:0:
256,192,75229,1,0,0:0:0:0:
256,192,75285,1,0,0:0:0:0:
256,192,75340,1,0,0:0:0:0:
256,192,75507,1,0,0:0:0:0:
256,192,75590,1,0,0:0:0:0:
256,192,75674,1,8,0:0:0:0:
256,192,75729,1,8,0:0:0:0:
256,192,75785,1,8,0:0:0:0:
256,192,75840,1,8,0:0:0:0:
256,192,76007,1,0,0:0:0:0:
256,192,76090,1,0,0:0:0:0:
256,192,76174,1,0,0:0:0:0:
256,192,76257,1,0,0:0:0:0:
256,192,76340,1,8,0:0:0:0:
256,192,76424,1,8,0:0:0:0:
256,192,76479,1,0,0:0:0:0:
256,192,76535,1,0,0:0:0:0:
256,192,76590,1,0,0:0:0:0:
256,192,76646,1,0,0:0:0:0:
256,192,76840,1,0,0:0:0:0:
256,192,76924,1,0,0:0:0:0:
256,192,77007,1,8,0:0:0:0:
256,192,77062,1,8,0:0:0:0:
256,192,77118,1,8,0:0:0:0:
256,192,77174,1,8,0:0:0:0:
256,192,77340,1,0,0:0:0:0:
256,192,77396,1,0,0:0:0:0:
256,192,77451,1,0,0:0:0:0:
256,192,77507,1,0,0:0:0:0:
256,192,77674,1,0,0:0:0:0:
256,192,77729,1,0,0:0:0:0:
256,192,77785,1,0,0:0:0:0:
256,192,77840,1,0,0:0:0:0:
256,192,78007,1,8,0:0:0:0:
256,192,78062,1,8,0:0:0:0:
256,192,78118,1,0,0:0:0:0:
256,192,78174,1,0,0:0:0:0:
256,192,78340,1,8,0:0:0:0:
256,192,78396,1,8,0:0:0:0:
256,192,78451,1,0,0:0:0:0:
256,192,78507,1,0,0:0:0:0:
256,192,78674,1,0,0:0:0:0:
256,192,79340,1,8,0:0:0:0:
