osu file format v12

[General]
AudioFilename: LOUDER!! LOUDER!!!! LOUDER!!!!!!.mp3
AudioLeadIn: 0
PreviewTime: 26648
Countdown: 0
SampleSet: Normal
StackLeniency: 0.7
Mode: 1
LetterboxInBreaks: 0
WidescreenStoryboard: 1

[Editor]
DistanceSpacing: 1.5
BeatDivisor: 2
GridSize: 32
TimelineZoom: 1

[Metadata]
Title:LOUDER!! LOUDER!!!! LOUDER!!!!!!
TitleUnicode:LOUDER!! LOUDER!!!! LOUDER!!!!!!
Artist:The Quick Brown Fox
ArtistUnicode:The Quick Brown Fox
Creator:DakeDekaane
Version:Futsuu
Source:
Tags:Renard Lapfox TQBF
BeatmapID:339489
BeatmapSetID:135532

[Difficulty]
HPDrainRate:4
CircleSize:5
OverallDifficulty:4
ApproachRate:5
SliderMultiplier:0.70000000596046
SliderTickRate:1

[Events]
//Background and Video events
0,0,"RedBG.jpg",0,0
//Break Periods
//Storyboard Layer 0 (Background)
//Storyboard Layer 1 (Fail)
//Storyboard Layer 2 (Pass)
//Storyboard Layer 3 (Foreground)
//Storyboard Sound Samples
//Background Colour Transformations
3,100,163,162,255

[TimingPoints]
674,166.666666666667,4,1,0,70,1,0
69340,-100,4,1,0,80,0,1
74674,-100,4,1,0,90,0,1
78674,-100,4,1,0,70,0,0
80007,-100,4,1,0,70,0,0

[Colours]
Combo1 : 93,93,93
Combo2 : 234,0,0

[HitObjects]
256,192,5340,5,0,0:0:0:0:
256,192,5507,1,0,0:0:0:0:
256,192,5674,1,0,0:0:0:0:
256,192,6007,1,8,0:0:0:0:
256,192,6340,1,0,0:0:0:0:
256,192,6674,1,0,0:0:0:0:
256,192,6840,1,0,0:0:0:0:
256,192,7007,1,0,0:0:0:0:
256,192,7340,1,8,0:0:0:0:
256,192,7674,1,8,0:0:0:0:
256,192,8007,1,8,0:0:0:0:
256,192,8174,1,0,0:0:0:0:
256,192,8340,1,8,0:0:0:0:
256,192,8674,1,8,0:0:0:0:
256,192,9007,1,0,0:0:0:0:
256,192,9340,1,0,0:0:0:0:
256,192,9507,1,0,0:0:0:0:
256,192,9674,1,8,0:0:0:0:
256,192,9840,1,0,0:0:0:0:
256,192,10007,1,0,0:0:0:0:
256,192,10340,1,8,0:0:0:0:
256,192,10674,1,0,0:0:0:0:
256,192,10840,1,0,0:0:0:0:
256,192,11007,1,0,0:0:0:0:
256,192,11340,1,8,0:0:0:0:
256,192,11674,1,0,0:0:0:0:
256,192,12007,1,0,0:0:0:0:
256,192,12174,1,0,0:0:0:0:
256,192,12340,1,0,0:0:0:0:
256,192,12674,1,8,0:0:0:0:
256,192,13007,1,8,0:0:0:0:
256,192,13340,1,8,0:0:0:0:
256,192,13507,1,8,0:0:0:0:
256,192,13674,1,8,0:0:0:0:
256,192,14007,1,8,0:0:0:0:
256,192,14340,1,0,0:0:0:0:
256,192,14674,1,4,0:0:0:0:
256,192,15007,1,4,0:0:0:0:
256,192,15340,8,0,15840,0:0:0:0:
256,192,16007,5,0,0:0:0:0:
256,192,16674,1,0,0:0:0:0:
256,192,17340,1,0,0:0:0:0:
256,192,17674,1,0,0:0:0:0:
256,192,18007,1,0,0:0:0:0:
256,192,18340,1,0,0:0:0:0:
256,192,18507,1,0,0:0:0:0:
256,192,18674,1,8,0:0:0:0:
256,192,19340,1,0,0:0:0:0:
256,192,20007,1,0,0:0:0:0:
256,192,20340,1,0,0:0:0:0:
256,192,20674,1,0,0:0:0:0:
256,192,20840,1,0,0:0:0:0:
256,192,21007,1,0,0:0:0:0:
256,192,21174,1,0,0:0:0:0:
256,192,21340,1,8,0:0:0:0:
256,192,22007,1,0,0:0:0:0:
256,192,22674,1,0,0:0:0:0:
256,192,23007,1,0,0:0:0:0:
256,192,23340,1,0,0:0:0:0:
256,192,23674,1,0,0:0:0:0:
256,192,23840,1,0,0:0:0:0:
256,192,24007,1,8,0:0:0:0:
256,192,24674,1,0,0:0:0:0:
256,192,25340,2,0,L|416:192,3,140.000001192092
256,192,26674,5,0,0:0:0:0:
256,192,26840,1,0,0:0:0:0:
256,192,27007,1,0,0:0:0:0:
256,192,27340,1,8,0:0:0:0:
256,192,27674,1,0,0:0:0:0:
256,192,28007,1,0,0:0:0:0:
256,192,28174,1,0,0:0:0:0:
256,192,28340,1,0,0:0:0:0:
256,192,28674,1,8,0:0:0:0:
256,192,29007,1,8,0:0:0:0:
256,192,29340,1,8,0:0:0:0:
256,192,29507,1,0,0:0:0:0:
256,192,29674,1,8,0:0:0:0:
256,192,30007,1,8,0:0:0:0:
256,192,30340,1,0,0:0:0:0:
256,192,30674,1,0,0:0:0:0:
256,192,30840,1,0,0:0:0:0:
256,192,31007,1,8,0:0:0:0:
256,192,31174,1,0,0:0:0:0:
256,192,31340,1,0,0:0:0:0:
256,192,31674,1,8,0:0:0:0:
256,192,32007,1,0,0:0:0:0:
256,192,32174,1,0,0:0:0:0:
256,192,32340,1,0,0:0:0:0:
256,192,32674,1,8,0:0:0:0:
256,192,33007,1,0,0:0:0:0:
256,192,33340,1,0,0:0:0:0:
256,192,33507,1,0,0:0:0:0:
256,192,33674,1,0,0:0:0:0:
256,192,34007,1,8,0:0:0:0:
256,192,34340,1,8,0:0:0:0:
256,192,34674,1,8,0:0:0:0:
256,192,34840,1,8,0:0:0:0:
256,192,35007,1,8,0:0:0:0:
256,192,35340,1,8,0:0:0:0:
256,192,35674,1,0,0:0:0:0:
256,192,36007,2,0,L|416:192,1,140.000001192092
256,192,36674,8,0,37174,0:0:0:0:
256,192,37340,5,0,0:0:0:0:
256,192,38007,1,8,0:0:0:0:
256,192,38340,1,8,0:0:0:0:
256,192,38674,1,8,0:0:0:0:
256,192,39340,1,8,0:0:0:0:
256,192,39674,1,8,0:0:0:0:
256,192,39840,1,8,0:0:0:0:
256,192,40007,1,8,0:0:0:0:
256,192,40674,1,8,0:0:0:0:
256,192,41007,1,8,0:0:0:0:
256,192,41340,1,8,0:0:0:0:
256,192,42007,1,8,0:0:0:0:
256,192,42340,1,8,0:0:0:0:
256,192,42507,1,8,0:0:0:0:
256,192,42674,1,8,0:0:0:0:
256,192,43340,1,8,0:0:0:0:
256,192,43674,1,8,0:0:0:0:
256,192,44007,1,8,0:0:0:0:
256,192,44674,1,8,0:0:0:0:
256,192,45007,1,8,0:0:0:0:
256,192,45174,1,8,0:0:0:0:
256,192,45340,1,8,0:0:0:0:
256,192,46007,1,8,0:0:0:0:
256,192,46340,1,8,0:0:0:0:
256,192,46674,1,8,0:0:0:0:
256,192,47340,8,8,47840,0:0:0:0:
256,192,48007,5,0,0:0:0:0:
256,192,48507,1,0,0:0:0:0:
256,192,48840,1,0,0:0:0:0:
256,192,49174,1,0,0:0:0:0:
256,192,49507,1,0,0:0:0:0:
256,192,49840,1,0,0:0:0:0:
256,192,50007,1,0,0:0:0:0:
256,192,50674,1,0,0:0:0:0:
256,192,51174,1,0,0:0:0:0:
256,192,51507,1,0,0:0:0:0:
256,192,51840,1,0,0:0:0:0:
256,192,52174,1,0,0:0:0:0:
256,192,52507,1,0,0:0:0:0:
256,192,52674,1,0,0:0:0:0:
256,192,53340,1,0,0:0:0:0:
256,192,53674,1,8,0:0:0:0:
256,192,53840,1,0,0:0:0:0:
256,192,54174,1,0,0:0:0:0:
256,192,54340,1,8,0:0:0:0:
256,192,54507,1,0,0:0:0:0:
256,192,54840,1,0,0:0:0:0:
256,192,55007,1,8,0:0:0:0:
256,192,55174,1,0,0:0:0:0:
256,192,55340,1,0,0:0:0:0:
256,192,56007,1,0,0:0:0:0:
256,192,56340,1,8,0:0:0:0:
256,192,56507,1,0,0:0:0:0:
256,192,56840,1,0,0:0:0:0:
256,192,57007,1,8,0:0:0:0:
256,192,57174,1,0,0:0:0:0:
256,192,58674,1,0,0:0:0:0:
256,192,59340,1,0,0:0:0:0:
256,192,60007,1,0,0:0:0:0:
256,192,60340,1,0,0:0:0:0:
256,192,60674,1,0,0:0:0:0:
256,192,61007,1,0,0:0:0:0:
256,192,61174,1,0,0:0:0:0:
256,192,61340,1,8,0:0:0:0:
256,192,62007,1,0,0:0:0:0:
256,192,62674,1,0,0:0:0:0:
256,192,63007,1,0,0:0:0:0:
256,192,63340,1,0,0:0:0:0:
256,192,63507,1,0,0:0:0:0:
256,192,63674,1,0,0:0:0:0:
256,192,63840,1,0,0:0:0:0:
256,192,64007,1,8,0:0:0:0:
256,192,64340,1,0,0:0:0:0:
256,192,64674,1,0,0:0:0:0:
256,192,65007,1,0,0:0:0:0:
256,192,65174,1,0,0:0:0:0:
256,192,65340,1,0,0:0:0:0:
256,192,65674,1,0,0:0:0:0:
256,192,66007,1,0,0:0:0:0:
256,192,66174,1,0,0:0:0:0:
256,192,66340,1,0,0:0:0:0:
256,192,66507,1,0,0:0:0:0:
256,192,66674,1,8,0:0:0:0:
256,192,67007,1,0,0:0:0:0:
256,192,67340,1,0,0:0:0:0:
256,192,67674,1,0,0:0:0:0:
256,192,68007,2,0,L|416:192,3,140.000001192092
256,192,69340,1,0,0:0:0:0:
256,192,69507,1,0,0:0:0:0:
256,192,69674,1,0,0:0:0:0:
256,192,70007,1,8,0:0:0:0:
256,192,70340,1,0,0:0:0:0:
256,192,70674,1,0,0:0:0:0:
256,192,70840,1,0,0:0:0:0:
256,192,71007,1,8,0:0:0:0:
256,192,71174,1,0,0:0:0:0:
256,192,71340,1,0,0:0:0:0:
256,192,71674,1,8,0:0:0:0:
256,192,72007,1,8,0:0:0:0:
256,192,72174,1,8,0:0:0:0:
256,192,72340,1,0,0:0:0:0:
256,192,72507,1,0,0:0:0:0:
256,192,72674,1,8,0:0:0:0:
256,192,73007,1,0,0:0:0:0:
256,192,73340,1,0,0:0:0:0:
256,192,73507,1,0,0:0:0:0:
256,192,73674,1,8,0:0:0:0:
256,192,73840,1,0,0:0:0:0:
256,192,74007,1,0,0:0:0:0:
256,192,74340,1,8,0:0:0:0:
256,192,74674,1,0,0:0:0:0:
256,192,74840,1,0,0:0:0:0:
256,192,75007,1,8,0:0:0:0:
256,192,75174,1,0,0:0:0:0:
256,192,75340,1,8,0:0:0:0:
256,192,75507,1,0,0:0:0:0:
256,192,75674,1,8,0:0:0:0:
256,192,76007,1,0,0:0:0:0:
256,192,76174,1,0,0:0:0:0:
256,192,76340,1,0,0:0:0:0:
256,192,76507,1,0,0:0:0:0:
256,192,76674,1,8,0:0:0:0:
256,192,76840,1,0,0:0:0:0:
256,192,77007,1,8,0:0:0:0:
256,192,77340,1,0,0:0:0:0:
256,192,77424,1,0,0:0:0:0:
256,192,77507,1,0,0:0:0:0:
256,192,78007,1,8,0:0:0:0:
256,192,78090,1,8,0:0:0:0:
256,192,78174,1,8,0:0:0:0:
256,192,78674,1,0,0:0:0:0:
256,192,79340,1,8,0:0:0:0:
