osu file format v14

[General]
AudioFilename: The Quick Brown Fox-JUST HESITATION www.myfreemp3.re .mp3
AudioLeadIn: 0
PreviewTime: -1
Countdown: 1
SampleSet: None
StackLeniency: 0.7
Mode: 0
LetterboxInBreaks: 1
WidescreenStoryboard: 0

[Editor]
DistanceSpacing: 0.8
BeatDivisor: 1
GridSize: 32
TimelineZoom: 1.1

[Metadata]
Title:JUST HESITATION
TitleUnicode:JUST HESITATION
Artist:The Quick Brown Fox
ArtistUnicode:The Quick Brown Fox
Creator:TEAMRAGEXD
Version:Normal
Source:
Tags:the quick brown fox just hesitation speedcore electronic fast TEAMRAGEXD
BeatmapID:772885
BeatmapSetID:350580

[Difficulty]
HPDrainRate:5
CircleSize:5
OverallDifficulty:1
ApproachRate:8
SliderMultiplier:1.3
SliderTickRate:1

[Events]
//Background and Video events
0,0,"wanderlust.jpg",0,0
//Break Periods
//Storyboard Layer 0 (Background)
//Storyboard Layer 1 (Fail)
//Storyboard Layer 2 (Pass)
//Storyboard Layer 3 (Foreground)
//Storyboard Sound Samples

[TimingPoints]
12150.7046051025,375,4,1,0,10,1,0

[HitObjects]
256,192,12150,5,0,0:0:0:0:
256,192,15150,1,0,0:0:0:0:
256,192,16650,1,0,0:0:0:0:
256,192,17400,1,0,0:0:0:0:
256,192,18150,1,0,0:0:0:0:
256,192,19650,1,0,0:0:0:0:
256,192,21150,1,0,0:0:0:0:
256,192,22650,1,0,0:0:0:0:
256,192,23400,1,0,0:0:0:0:
256,192,24150,1,0,0:0:0:0:
256,192,25650,1,0,0:0:0:0:
256,192,26400,1,0,0:0:0:0:
256,192,27150,1,0,0:0:0:0:
256,192,28650,1,0,0:0:0:0:
256,192,29400,1,0,0:0:0:0:
256,192,30150,1,0,0:0:0:0:
256,192,31650,1,0,0:0:0:0:
256,192,32775,1,0,0:0:0:0:
256,192,33150,1,0,0:0:0:0:
256,192,34650,5,0,0:0:0:0:
256,192,35400,6,0,B|448:288|448:160|256:128,1,260
256,192,37275,1,0,0:0:0:0:
256,192,38025,2,0,B|384:256|463:207|384:160|498:139|222:71,1,390
256,192,39900,1,0,0:0:0:0:
256,192,40650,1,0,0:0:0:0:
256,192,41025,2,0,B|160:64|128:96|352:352,1,390
256,192,42900,1,0,0:0:0:0:
256,192,44025,2,0,B|160:96|256:224|32:128|160:384|438:277|340:356,1,390
256,192,45525,1,0,0:0:0:0:
256,192,45900,1,0,0:0:0:0:
256,192,46650,1,0,0:0:0:0:
256,192,47400,1,0,0:0:0:0:
256,192,47775,2,0,L|384:128,1,130
256,192,48900,1,0,0:0:0:0:
256,192,49650,1,0,0:0:0:0:
256,192,50025,2,0,B|384:224|320:352|544:384|512:64|288:128,1,390
394,133,51525,2,0,P|256:128|160:160,1,130
256,192,52650,1,0,0:0:0:0:
256,192,53025,2,0,B|416:192|480:64|96:32|446:7,1,390
256,192,54900,1,0,0:0:0:0:
256,192,55650,1,0,0:0:0:0:
256,192,56025,2,0,B|256:352|384:288|448:224|320:64|96:224,1,390
203,170,57525,2,0,L|79:252,1,130
256,192,58650,1,0,0:0:0:0:
256,192,59025,2,0,B|154:280|0:32|142:394,1,260
254,192,60150,5,0,0:0:0:0:
254,192,60900,1,0,0:0:0:0:
224,128,61275,2,0,P|192:256|288:256,1,260
254,192,62400,1,0,0:0:0:0:
125,81,62775,2,0,B|253:145|221:273|413:305|413:337,1,390
256,192,65025,1,0,0:0:0:0:
256,192,65400,2,0,L|416:192,1,130
256,192,66150,5,0,0:0:0:0:
256,192,67650,1,0,0:0:0:0:
256,192,68025,2,0,B|160:64|320:64|384:288|320:384,1,390
256,192,69900,1,0,0:0:0:0:
256,192,70650,1,0,0:0:0:0:
256,192,71025,2,0,B|160:64|96:224|416:320,1,390
256,192,72900,1,0,0:0:0:0:
256,192,73650,1,0,0:0:0:0:
256,192,74025,2,0,B|384:64|96:256|512:320,1,390
256,192,75900,1,0,0:0:0:0:
256,192,76650,1,0,0:0:0:0:
256,192,77025,2,0,P|384:192|256:64,1,390
256,192,78900,1,0,0:0:0:0:
256,192,79650,1,0,0:0:0:0:
256,192,80025,2,0,L|96:192|192:192,3,130
256,192,81900,1,0,0:0:0:0:
256,192,82650,1,0,0:0:0:0:
256,192,83025,2,0,B|416:128|288:192|320:192,3,130
256,192,84900,1,0,0:0:0:0:
256,192,85650,1,0,0:0:0:0:
256,192,86025,2,0,B|416:96|352:288|96:320,1,390
256,192,87900,1,0,0:0:0:0:
256,192,88650,1,0,0:0:0:0:
256,192,89025,2,0,P|96:192|160:320,1,260
256,192,90150,5,0,0:0:0:0:
256,192,91650,1,0,0:0:0:0:
256,192,92025,1,0,0:0:0:0:
350,191,92775,1,0,0:0:0:0:
161,190,93150,1,0,0:0:0:0:
256,191,94650,1,0,0:0:0:0:
356,192,95025,1,0,0:0:0:0:
161,191,95400,1,0,0:0:0:0:
256,191,95775,1,0,0:0:0:0:
256,191,96150,2,0,B|160:319|192:287,1,130
256,191,97650,1,0,0:0:0:0:
164,188,98025,1,0,0:0:0:0:
356,192,98400,1,0,0:0:0:0:
356,192,98775,2,0,L|139:188,1,130
164,188,99525,1,0,0:0:0:0:
256,192,100650,1,0,0:0:0:0:
187,187,101775,1,0,0:0:0:0:
256,192,102150,2,0,L|32:32,1,260
255,183,103650,1,0,0:0:0:0:
192,190,104025,1,0,0:0:0:0:
192,190,104400,2,0,P|352:190|288:286,1,260
271,195,105525,1,0,0:0:0:0:
256,192,106650,1,0,0:0:0:0:
161,189,107025,1,0,0:0:0:0:
348,192,107400,1,0,0:0:0:0:
256,192,107775,2,0,L|256:329,1,130
256,192,109650,1,0,0:0:0:0:
164,189,110025,1,0,0:0:0:0:
280,117,110400,2,0,P|312:245|184:245,1,260
256,192,111525,1,0,0:0:0:0:
256,192,112650,1,0,0:0:0:0:
161,192,113025,1,0,0:0:0:0:
351,191,113400,1,0,0:0:0:0:
256,192,113775,1,0,0:0:0:0:
160,192,114150,1,0,0:0:0:0:
256,192,114525,1,0,0:0:0:0:
256,192,115275,1,0,0:0:0:0:
256,192,115650,2,0,L|256:26,1,130
257,197,116400,1,0,0:0:0:0:
256,192,116775,1,0,0:0:0:0:
256,192,118650,1,0,0:0:0:0:
327,190,119025,1,0,0:0:0:0:
162,187,119400,1,0,0:0:0:0:
256,192,119775,1,0,0:0:0:0:
327,190,120150,1,0,0:0:0:0:
162,187,120525,1,0,0:0:0:0:
256,192,120900,1,0,0:0:0:0:
256,192,121650,1,0,0:0:0:0:
325,189,122400,1,0,0:0:0:0:
189,197,123150,1,0,0:0:0:0:
256,192,123900,1,0,0:0:0:0:
321,195,124650,1,0,0:0:0:0:
189,197,125400,1,0,0:0:0:0:
256,192,126150,1,0,0:0:0:0:
256,192,127650,1,0,0:0:0:0:
256,192,129150,1,0,0:0:0:0:
256,192,130650,1,0,0:0:0:0:
256,192,131400,1,0,0:0:0:0:
256,192,132150,1,0,0:0:0:0:
256,192,135150,1,0,0:0:0:0:
256,192,138150,1,0,0:0:0:0:
256,192,141150,1,0,0:0:0:0:
256,192,142650,1,0,0:0:0:0:
256,192,143025,2,0,L|128:64|192:128,1,260
256,192,144150,5,0,0:0:0:0:
256,192,144900,1,0,0:0:0:0:
256,192,145650,1,0,0:0:0:0:
256,192,146025,2,0,P|128:64|160:224,1,390
256,192,147900,1,0,0:0:0:0:
256,192,148650,1,0,0:0:0:0:
256,192,149025,2,0,P|320:64|416:224,1,390
256,192,150900,1,0,0:0:0:0:
256,192,151650,1,0,0:0:0:0:
256,192,152025,2,0,B|384:288|480:160|118:349,1,390
256,192,153900,1,0,0:0:0:0:
256,192,154650,1,0,0:0:0:0:
256,192,155025,2,0,P|96:192|256:128,1,390
256,192,156900,1,0,0:0:0:0:
256,192,157650,1,0,0:0:0:0:
256,192,158025,2,0,P|384:256|224:352,1,390
256,192,159900,1,0,0:0:0:0:
256,192,160650,1,0,0:0:0:0:
256,192,161025,2,0,P|192:32|-28:110,1,390
261,192,162900,1,0,0:0:0:0:
261,192,163650,1,0,0:0:0:0:
261,192,164025,2,0,P|133:256|293:352,1,390
261,192,165900,1,0,0:0:0:0:
261,192,166650,1,0,0:0:0:0:
261,192,167025,2,0,B|133:256|197:224|197:224,2,130
261,192,168150,5,0,0:0:0:0:
193,192,168525,1,0,0:0:0:0:
336,192,168900,1,0,0:0:0:0:
256,125,169275,1,0,0:0:0:0:
261,192,169650,1,0,0:0:0:0:
256,125,170025,1,0,0:0:0:0:
193,192,170400,2,0,B|257:64|353:192|97:352,1,260
256,192,171525,1,0,0:0:0:0:
256,125,171900,1,0,0:0:0:0:
320,192,172275,1,0,0:0:0:0:
193,195,172650,1,0,0:0:0:0:
193,195,173025,2,0,P|257:67|385:227,1,390
256,192,174525,1,0,0:0:0:0:
196,191,174900,1,0,0:0:0:0:
322,193,175275,1,0,0:0:0:0:
256,124,175650,1,0,0:0:0:0:
256,192,176025,2,0,P|96:160|224:288,1,390
160,192,177525,1,0,0:0:0:0:
256,192,177900,1,0,0:0:0:0:
352,192,178275,1,0,0:0:0:0:
256,128,178650,1,0,0:0:0:0:
256,192,179025,2,0,P|160:64|288:160,1,390
256,192,180525,1,0,0:0:0:0:
193,192,180900,1,0,0:0:0:0:
320,194,181275,1,0,0:0:0:0:
257,126,181650,1,0,0:0:0:0:
257,126,182025,2,0,P|161:254|321:254,1,390
257,193,183525,1,0,0:0:0:0:
196,194,183900,1,0,0:0:0:0:
322,193,184275,1,0,0:0:0:0:
256,129,184650,1,0,0:0:0:0:
256,129,185025,2,0,P|128:1|160:129,1,390
256,192,186525,1,0,0:0:0:0:
323,194,186900,1,0,0:0:0:0:
189,194,187275,1,0,0:0:0:0:
255,130,187650,1,0,0:0:0:0:
255,130,188025,2,0,P|159:258|351:322,1,390
256,192,189900,1,0,0:0:0:0:
256,192,190275,1,0,0:0:0:0:
256,192,190650,1,0,0:0:0:0:
256,192,191025,12,0,192150,0:0:0:0:
