osu file format v14

[General]
AudioFilename: The Quick Brown Fox-JUST HESITATION www.myfreemp3.re .mp3
AudioLeadIn: 0
PreviewTime: 66150
Countdown: 1
SampleSet: Normal
StackLeniency: 0.7
Mode: 0
LetterboxInBreaks: 1
WidescreenStoryboard: 1

[Editor]
DistanceSpacing: 0.8
BeatDivisor: 1
GridSize: 32
TimelineZoom: 1

[Metadata]
Title:JUST HESITATION
TitleUnicode:JUST HESITATION
Artist:The Quick Brown Fox
ArtistUnicode:The Quick Brown Fox
Creator:TEAMRAGEXD
Version:Easy
Source:
Tags:the quick brown fox just hesitation speedcore electronic fast TEAMRAGEXD
BeatmapID:772884
BeatmapSetID:350580

[Difficulty]
HPDrainRate:1
CircleSize:4
OverallDifficulty:1
ApproachRate:6
SliderMultiplier:1.3
SliderTickRate:1

[Events]
//Background and Video events
0,0,"wanderlust.jpg",0,0
//Break Periods
//Storyboard Layer 0 (Background)
//Storyboard Layer 1 (Fail)
//Storyboard Layer 2 (Pass)
//Storyboard Layer 3 (Foreground)
//Storyboard Sound Samples

[TimingPoints]
12150.7046051025,375,4,1,0,10,1,0

[HitObjects]
256,192,12150,5,0,0:0:0:0:
256,192,15150,1,0,0:0:0:0:
256,192,16650,1,0,0:0:0:0:
256,192,17400,1,0,0:0:0:0:
256,192,18150,1,0,0:0:0:0:
256,192,19650,1,0,0:0:0:0:
256,192,21150,1,0,0:0:0:0:
256,192,22650,1,0,0:0:0:0:
256,192,23400,1,0,0:0:0:0:
256,192,24150,1,0,0:0:0:0:
256,192,25650,1,0,0:0:0:0:
256,192,26400,1,0,0:0:0:0:
256,192,27150,1,0,0:0:0:0:
256,192,28650,1,0,0:0:0:0:
256,192,29400,1,0,0:0:0:0:
256,192,30150,1,0,0:0:0:0:
256,192,31650,1,0,0:0:0:0:
256,192,33150,1,0,0:0:0:0:
256,192,34650,5,0,0:0:0:0:
256,192,35400,6,0,B|448:288|448:160|256:128,1,260
128,224,38025,2,0,B|256:288|384:224|256:192|448:64|480:32,1,390
256,160,41025,2,0,B|160:32|128:64|352:320,1,390
192,160,44025,2,0,B|96:64|192:192|-32:96|96:352|320:288|256:352,1,390
288,320,45525,1,0,0:0:0:0:
256,192,46650,1,0,0:0:0:0:
192,96,47775,2,0,L|320:32,1,130
224,64,48900,1,0,0:0:0:0:
256,192,50025,2,0,B|384:224|320:352|544:384|512:64|64:128,1,650
192,160,53025,2,0,B|352:160|416:32|32:0|32:64,1,390
128,96,54900,1,0,0:0:0:0:
224,160,56025,2,0,B|224:320|352:256|416:192|288:32|32:352,1,520
224,256,59025,2,0,B|320:128|-32:96|32:288,1,260
256,192,60150,5,0,0:0:0:0:
160,64,61275,2,0,P|128:192|224:192,1,260
224,96,62775,2,0,B|352:160|320:288|512:320|512:352,1,390
352,352,65025,1,0,0:0:0:0:
256,192,66150,5,0,0:0:0:0:
256,192,68025,2,0,B|160:64|320:64|384:288|320:384,1,390
256,192,69900,1,0,0:0:0:0:
256,192,71025,2,0,B|160:64|96:224|416:320,1,390
256,192,72900,1,0,0:0:0:0:
256,192,74025,2,0,B|384:64|96:256|512:320,1,390
320,352,75900,1,0,0:0:0:0:
256,96,77025,2,0,P|448:128|320:0,1,390
448,192,78900,1,0,0:0:0:0:
160,192,80025,2,0,L|0:192|96:192,3,130
160,64,81900,1,0,0:0:0:0:
224,320,83025,2,0,B|384:256|256:320|288:320,3,130
96,288,84900,1,0,0:0:0:0:
352,224,86025,2,0,B|512:128|448:320|192:352,1,390
160,160,87900,1,0,0:0:0:0:
416,288,89025,2,0,P|256:288|320:416,1,260
256,192,90150,5,0,0:0:0:0:
256,192,91650,1,0,0:0:0:0:
256,192,93150,1,0,0:0:0:0:
256,192,95025,1,0,0:0:0:0:
256,192,96150,2,0,B|160:320|192:288,1,130
128,192,98025,1,0,0:0:0:0:
128,192,98775,2,0,L|320:192,1,130
256,192,100650,1,0,0:0:0:0:
256,192,101775,1,0,0:0:0:0:
256,192,103650,1,0,0:0:0:0:
256,192,104400,2,0,P|416:192|352:288,1,260
415,227,107025,1,0,0:0:0:0:
415,227,107775,2,0,L|256:192,1,130
192,96,110025,1,0,0:0:0:0:
192,96,110400,2,0,P|224:224|96:224,1,260
128,96,113025,1,0,0:0:0:0:
128,96,114150,1,0,0:0:0:0:
128,96,115275,1,0,0:0:0:0:
128,96,116400,1,0,0:0:0:0:
288,224,119025,1,0,0:0:0:0:
256,192,120150,5,0,0:0:0:0:
256,192,121650,1,0,0:0:0:0:
256,192,122400,1,0,0:0:0:0:
256,192,123150,1,0,0:0:0:0:
256,192,124650,1,0,0:0:0:0:
256,192,126150,1,0,0:0:0:0:
256,192,129150,1,0,0:0:0:0:
256,192,130650,1,0,0:0:0:0:
256,192,132150,1,0,0:0:0:0:
256,192,135150,1,0,0:0:0:0:
256,192,138150,1,0,0:0:0:0:
256,192,141150,1,0,0:0:0:0:
160,96,143025,2,0,L|70:6|134:70,1,130
256,192,144150,5,0,0:0:0:0:
256,192,144900,1,0,0:0:0:0:
256,192,146025,2,0,P|128:64|160:224,1,390
224,192,147900,1,0,0:0:0:0:
224,192,149025,2,0,P|288:64|384:224,1,390
288,192,150900,1,0,0:0:0:0:
128,128,152025,2,0,B|256:224|352:96|448:320,1,390
332,255,153900,1,0,0:0:0:0:
192,128,155025,2,0,P|32:128|192:64,1,390
246,34,156900,1,0,0:0:0:0:
216,210,158025,2,0,P|344:274|184:370,1,390
121,301,159900,1,0,0:0:0:0:
288,224,161025,2,0,P|224:64|0:64,1,390
96,151,162900,1,0,0:0:0:0:
266,168,164025,2,0,P|138:232|298:328,1,390
279,341,165900,1,0,0:0:0:0:
256,160,167025,2,0,B|128:224|192:192|192:192,2,130
256,160,168150,5,0,0:0:0:0:
256,160,168900,1,0,0:0:0:0:
256,160,169650,1,0,0:0:0:0:
160,160,170400,2,0,B|224:32|320:160|64:320,1,260
153,253,171900,1,0,0:0:0:0:
153,253,173025,2,0,P|217:125|345:285,1,390
261,236,174900,1,0,0:0:0:0:
261,236,176025,2,0,P|101:204|229:332,1,390
174,258,177900,1,0,0:0:0:0:
174,258,179025,2,0,P|78:130|206:226,1,390
209,156,180900,1,0,0:0:0:0:
209,156,182025,2,0,P|113:284|273:284,1,390
194,234,183900,1,0,0:0:0:0:
194,234,185025,2,0,P|66:106|98:234,1,390
152,151,186900,1,0,0:0:0:0:
152,151,188025,2,0,P|111:264|269:182,1,390
256,192,189900,12,0,192150,0:0:0:0:
