osu file format v12

[General]
AudioFilename: LapFox Trax - BRUTAL RHYTHM RIDER - 05 HIT AND RUN IN 1920 A.D..mp3
AudioLeadIn: 2000
PreviewTime: 16064
Countdown: 0
SampleSet: Normal
StackLeniency: 0.7
Mode: 1
LetterboxInBreaks: 0

[Editor]
Bookmarks: 32075,48075,56064,64064,66064,71064,72064,88064,104064,112064,120064,128064
DistanceSpacing: 0.8
BeatDivisor: 2
GridSize: 32

[Metadata]
Title:HIT AND RUN IN 1920 A.D.
TitleUnicode:HIT AND RUN IN 1920 A.D.
Artist:The Quick Brown Fox
ArtistUnicode:The Quick Brown Fox
Creator:kazukisinx
Version:Muzukashii
Source:
Tags:taiko lapfox trax speedcore
BeatmapID:218392
BeatmapSetID:77858

[Difficulty]
HPDrainRate:5
CircleSize:5
OverallDifficulty:4
ApproachRate:5
SliderMultiplier:1.2
SliderTickRate:1

[Events]
//Background and Video events
0,0,"Pwnage.jpg",0,0
//Break Periods
//Storyboard Layer 0 (Background)
//Storyboard Layer 1 (Fail)
//Storyboard Layer 2 (Pass)
//Storyboard Layer 3 (Foreground)
//Storyboard Sound Samples
//Background Colour Transformations
3,100,163,162,255

[TimingPoints]
64,250,4,1,0,60,1,0
64,-133.333333333333,4,1,0,60,0,0
14064,-125,4,1,0,60,0,0
15064,-111.111111111111,4,1,0,60,0,0
15314,-105.263157894737,4,1,0,60,0,0
15564,-100,4,1,0,100,0,0
56064,-100,4,1,0,100,0,1
72064,-100,4,1,0,100,0,0
72314,-133.333333333333,4,1,0,100,0,0
104064,-100,4,1,0,100,0,0
112064,-100,4,1,0,100,0,1
128064,-100,4,1,0,100,0,0
128314,-133.333333333333,4,1,0,100,0,0
136064,-133.333333333333,4,1,0,70,0,0
138064,-133.333333333333,4,1,0,60,0,0
140064,-133.333333333333,4,1,0,40,0,0
142064,-133.333333333333,4,1,0,20,0,0

[Colours]
Combo1 : 48,176,192
Combo2 : 248,72,40

[HitObjects]
256,192,64,1,0,0:0:0:0:
256,192,314,1,0,0:0:0:0:
256,192,564,5,8,0:0:0:0:
256,192,2064,1,8,0:0:0:0:
256,192,2314,5,0,0:0:0:0:
256,192,2564,5,8,0:0:0:0:
256,192,4064,5,0,0:0:0:0:
256,192,4314,1,0,0:0:0:0:
256,192,4564,5,8,0:0:0:0:
256,192,6064,1,8,0:0:0:0:
256,192,6314,5,0,0:0:0:0:
256,192,6564,5,8,0:0:0:0:
256,192,6814,5,0,0:0:0:0:
256,192,7064,5,8,0:0:0:0:
256,192,7314,5,0,0:0:0:0:
256,192,7564,5,8,0:0:0:0:
256,192,7814,1,8,0:0:0:0:
256,192,8064,5,4,0:0:0:0:
256,192,8314,1,0,0:0:0:0:
256,192,8564,5,8,0:0:0:0:
256,192,9064,1,8,0:0:0:0:
256,192,10064,1,8,0:0:0:0:
256,192,10314,5,0,0:0:0:0:
256,192,10564,5,8,0:0:0:0:
96,256,11814,2,0,L|96:128,1,105.000004005432
256,192,12314,5,0,0:0:0:0:
256,192,12564,5,8,0:0:0:0:
256,192,13064,1,8,0:0:0:0:
256,192,14064,5,0,0:0:0:0:
256,192,14564,1,0,0:0:0:0:
256,192,15064,1,0,0:0:0:0:
256,192,15314,1,0,0:0:0:0:
256,192,15564,1,0,0:0:0:0:
256,192,15689,1,0,0:0:0:0:
224,192,15814,1,0,0:0:0:0:
192,160,15939,1,0,0:0:0:0:
256,192,16064,5,8,0:0:0:0:
256,192,16314,5,0,0:0:0:0:
256,192,16564,5,8,0:0:0:0:
256,192,16814,5,0,0:0:0:0:
256,192,17064,5,8,0:0:0:0:
256,192,17314,5,0,0:0:0:0:
256,192,17564,5,8,0:0:0:0:
256,192,17814,5,0,0:0:0:0:
256,192,18064,5,8,0:0:0:0:
256,192,18314,5,0,0:0:0:0:
256,192,18564,5,8,0:0:0:0:
256,192,18814,5,0,0:0:0:0:
256,192,19064,5,8,0:0:0:0:
256,192,19189,1,8,0:0:0:0:
256,192,19314,5,0,0:0:0:0:
256,192,19439,1,0,0:0:0:0:
256,192,19564,5,8,0:0:0:0:
256,192,19814,5,0,0:0:0:0:
256,192,20064,1,4,0:0:0:0:
256,192,20314,1,0,0:0:0:0:
256,192,20564,5,8,0:0:0:0:
256,192,20814,5,0,0:0:0:0:
256,192,21064,5,8,0:0:0:0:
256,192,21314,5,0,0:0:0:0:
256,192,21564,5,8,0:0:0:0:
256,192,21814,5,0,0:0:0:0:
256,192,22064,1,4,0:0:0:0:
256,192,22314,1,0,0:0:0:0:
256,192,22564,5,8,0:0:0:0:
256,192,22814,5,0,0:0:0:0:
256,192,23064,1,0,0:0:0:0:
256,192,23189,5,8,0:0:0:0:
256,192,23314,1,8,0:0:0:0:
256,192,23439,5,0,0:0:0:0:
256,192,23564,1,0,0:0:0:0:
256,192,23689,5,8,0:0:0:0:
256,192,23814,5,0,0:0:0:0:
256,192,24064,1,4,0:0:0:0:
256,192,24314,1,0,0:0:0:0:
256,192,24564,5,8,0:0:0:0:
256,192,24814,5,0,0:0:0:0:
256,192,25064,5,8,0:0:0:0:
256,192,25314,5,0,0:0:0:0:
256,192,25564,5,8,0:0:0:0:
256,192,25814,5,0,0:0:0:0:
256,192,26064,5,8,0:0:0:0:
256,192,26314,5,0,0:0:0:0:
256,192,26564,5,8,0:0:0:0:
256,192,26814,5,0,0:0:0:0:
256,192,27064,5,8,0:0:0:0:
256,192,27189,1,8,0:0:0:0:
256,192,27314,5,0,0:0:0:0:
256,192,27439,1,0,0:0:0:0:
256,192,27564,5,8,0:0:0:0:
256,192,27814,5,0,0:0:0:0:
256,192,28064,1,4,0:0:0:0:
256,192,28314,1,0,0:0:0:0:
256,192,28564,5,8,0:0:0:0:
256,192,28814,5,0,0:0:0:0:
256,192,29064,5,8,0:0:0:0:
256,192,29314,5,0,0:0:0:0:
256,192,29564,5,8,0:0:0:0:
256,192,29814,5,0,0:0:0:0:
256,192,30064,5,8,0:0:0:0:
256,192,30314,1,8,0:0:0:0:
256,192,30564,1,8,0:0:0:0:
256,192,30689,1,8,0:0:0:0:
256,192,30814,5,0,0:0:0:0:
256,192,31064,1,0,0:0:0:0:
256,192,31314,5,8,0:0:0:0:
256,192,31564,5,0,0:0:0:0:
256,192,31814,1,0,0:0:0:0:
256,192,31939,1,0,0:0:0:0:
256,192,32064,1,0,0:0:0:0:
256,192,32314,5,8,0:0:0:0:
256,192,32564,5,0,0:0:0:0:
256,192,32814,5,8,0:0:0:0:
256,192,33064,5,0,0:0:0:0:
256,192,33314,5,8,0:0:0:0:
256,192,33564,5,0,0:0:0:0:
256,192,33689,1,0,0:0:0:0:
256,192,33814,5,8,0:0:0:0:
256,192,34064,5,0,0:0:0:0:
256,192,34314,5,8,0:0:0:0:
256,192,34564,5,0,0:0:0:0:
256,192,34814,5,8,0:0:0:0:
256,192,35064,5,0,0:0:0:0:
256,192,35314,5,8,0:0:0:0:
256,192,35564,5,0,0:0:0:0:
256,192,35689,1,0,0:0:0:0:
256,192,35814,1,8,0:0:0:0:
256,192,35939,1,0,0:0:0:0:
256,192,36064,1,0,0:0:0:0:
256,192,36314,5,8,0:0:0:0:
256,192,36564,5,0,0:0:0:0:
256,192,36814,5,8,0:0:0:0:
256,192,37064,5,0,0:0:0:0:
256,192,37314,5,8,0:0:0:0:
256,192,37564,5,0,0:0:0:0:
256,192,37689,1,0,0:0:0:0:
256,192,37814,5,8,0:0:0:0:
256,192,38064,1,8,0:0:0:0:
256,192,38189,5,0,0:0:0:0:
256,192,38439,5,8,0:0:0:0:
256,192,38564,5,0,0:0:0:0:
256,192,38814,1,0,0:0:0:0:
256,192,38939,1,0,0:0:0:0:
256,192,39064,5,8,0:0:0:0:
256,192,39189,5,0,0:0:0:0:
256,192,39439,1,0,0:0:0:0:
256,192,39564,1,0,0:0:0:0:
256,192,39814,1,8,0:0:0:0:
256,192,39939,1,8,0:0:0:0:
256,192,40064,5,0,0:0:0:0:
256,192,40314,5,8,0:0:0:0:
256,192,40564,5,0,0:0:0:0:
256,192,40814,5,8,0:0:0:0:
256,192,41064,5,0,0:0:0:0:
256,192,41314,5,8,0:0:0:0:
256,192,41564,5,0,0:0:0:0:
256,192,41689,1,0,0:0:0:0:
256,192,41814,5,8,0:0:0:0:
256,192,41939,5,0,0:0:0:0:
256,192,42064,1,0,0:0:0:0:
256,192,42314,5,8,0:0:0:0:
256,192,42564,5,0,0:0:0:0:
256,192,42814,5,8,0:0:0:0:
256,192,43064,5,0,0:0:0:0:
256,192,43314,5,8,0:0:0:0:
256,192,43564,5,0,0:0:0:0:
256,192,43689,5,8,0:0:0:0:
256,192,43814,1,0,0:0:0:0:
256,192,43939,1,0,0:0:0:0:
256,192,44064,1,0,0:0:0:0:
256,192,44314,1,8,0:0:0:0:
256,192,44564,5,0,0:0:0:0:
256,192,44814,5,8,0:0:0:0:
256,192,45064,5,0,0:0:0:0:
256,192,45314,5,8,0:0:0:0:
256,192,45564,5,0,0:0:0:0:
256,192,45689,5,8,0:0:0:0:
256,192,45814,5,0,0:0:0:0:
256,192,46064,5,8,0:0:0:0:
256,192,46189,5,0,0:0:0:0:
256,192,46439,5,8,0:0:0:0:
256,192,46564,5,0,0:0:0:0:
256,192,46814,1,0,0:0:0:0:
256,192,46939,1,0,0:0:0:0:
256,192,47064,5,8,0:0:0:0:
256,192,47189,5,0,0:0:0:0:
256,192,47439,1,0,0:0:0:0:
256,192,47564,1,0,0:0:0:0:
256,192,47814,1,8,0:0:0:0:
256,192,47939,1,8,0:0:0:0:
256,192,48064,5,0,0:0:0:0:
256,192,48314,5,8,0:0:0:0:
256,192,48814,1,8,0:0:0:0:
256,192,49314,1,8,0:0:0:0:
256,192,49814,5,0,0:0:0:0:
256,192,50064,1,4,0:0:0:0:
256,192,50314,5,8,0:0:0:0:
256,192,50814,1,8,0:0:0:0:
256,192,51314,1,8,0:0:0:0:
256,192,51564,1,8,0:0:0:0:
256,192,51689,1,8,0:0:0:0:
256,192,51814,5,0,0:0:0:0:
256,192,52064,1,4,0:0:0:0:
256,192,52314,5,8,0:0:0:0:
256,192,52814,1,8,0:0:0:0:
256,192,53064,5,4,0:0:0:0:
256,192,53314,5,8,0:0:0:0:
256,192,53814,1,8,0:0:0:0:
256,192,54064,5,4,0:0:0:0:
256,192,54314,5,8,0:0:0:0:
256,192,54564,5,0,0:0:0:0:
256,192,54814,5,8,0:0:0:0:
256,192,55064,5,0,0:0:0:0:
256,192,55189,1,0,0:0:0:0:
256,192,55314,5,8,0:0:0:0:
256,192,55564,1,0,0:0:0:0:
256,192,55814,1,0,0:0:0:0:
256,192,55939,1,0,0:0:0:0:
256,192,56064,5,0,0:0:0:0:
256,192,56189,5,8,0:0:0:0:
256,192,56439,1,8,0:0:0:0:
256,192,56564,5,0,0:0:0:0:
256,192,56814,1,0,0:0:0:0:
256,192,57064,1,0,0:0:0:0:
256,192,57189,5,8,0:0:0:0:
256,192,57439,1,8,0:0:0:0:
256,192,57564,1,8,0:0:0:0:
256,192,57814,5,0,0:0:0:0:
256,192,58064,5,8,0:0:0:0:
256,192,58189,5,0,0:0:0:0:
256,192,58439,5,8,0:0:0:0:
256,192,58564,5,0,0:0:0:0:
256,192,58814,5,8,0:0:0:0:
256,192,58939,5,0,0:0:0:0:
256,192,59189,5,8,0:0:0:0:
256,192,59314,5,0,0:0:0:0:
256,192,59439,1,0,0:0:0:0:
256,192,59564,5,8,0:0:0:0:
256,192,59814,5,0,0:0:0:0:
256,192,60064,5,8,0:0:0:0:
256,192,60189,5,0,0:0:0:0:
256,192,60439,5,8,0:0:0:0:
256,192,60564,1,8,0:0:0:0:
256,192,60689,5,0,0:0:0:0:
256,192,60814,5,8,0:0:0:0:
256,192,60939,5,0,0:0:0:0:
256,192,61189,1,0,0:0:0:0:
256,192,61314,1,0,0:0:0:0:
256,192,61439,5,8,0:0:0:0:
256,192,61564,1,8,0:0:0:0:
256,192,61814,5,0,0:0:0:0:
256,192,62064,5,8,0:0:0:0:
256,192,62189,5,0,0:0:0:0:
256,192,62314,1,0,0:0:0:0:
256,192,62439,1,0,0:0:0:0:
256,192,62689,1,0,0:0:0:0:
256,192,62814,5,8,0:0:0:0:
256,192,62939,5,0,0:0:0:0:
256,192,63189,1,0,0:0:0:0:
256,192,63314,1,0,0:0:0:0:
256,192,63564,1,0,0:0:0:0:
256,192,63814,1,0,0:0:0:0:
256,192,64064,1,0,0:0:0:0:
256,192,64189,5,8,0:0:0:0:
256,192,64439,5,0,0:0:0:0:
256,192,64564,5,8,0:0:0:0:
256,192,64814,5,0,0:0:0:0:
256,192,65064,1,0,0:0:0:0:
256,192,65189,5,8,0:0:0:0:
256,192,65439,1,8,0:0:0:0:
256,192,65564,5,0,0:0:0:0:
256,192,65814,1,0,0:0:0:0:
256,192,66064,1,0,0:0:0:0:
256,192,66189,5,8,0:0:0:0:
256,192,66314,5,0,0:0:0:0:
256,192,66439,5,8,0:0:0:0:
256,192,66564,5,0,0:0:0:0:
256,192,66689,5,8,0:0:0:0:
256,192,66814,5,0,0:0:0:0:
256,192,66939,1,0,0:0:0:0:
256,192,67189,5,8,0:0:0:0:
256,192,67314,5,0,0:0:0:0:
256,192,67564,5,8,0:0:0:0:
256,192,67689,1,8,0:0:0:0:
256,192,67814,5,0,0:0:0:0:
256,192,68064,1,0,0:0:0:0:
256,192,68189,5,8,0:0:0:0:
256,192,68314,5,0,0:0:0:0:
256,192,68439,5,8,0:0:0:0:
256,192,68564,5,0,0:0:0:0:
256,192,68689,5,8,0:0:0:0:
256,192,68814,1,8,0:0:0:0:
256,192,68939,5,0,0:0:0:0:
256,192,69189,5,8,0:0:0:0:
256,192,69314,5,0,0:0:0:0:
256,192,69439,5,8,0:0:0:0:
256,192,69689,5,0,0:0:0:0:
256,192,69814,1,8,0:0:0:0:
256,192,70064,5,8,0:0:0:0:
256,192,70189,1,0,0:0:0:0:
256,192,70314,1,8,0:0:0:0:
256,192,70439,1,0,0:0:0:0:
256,192,70689,1,0,0:0:0:0:
256,192,70814,5,8,0:0:0:0:
256,192,71064,1,8,0:0:0:0:
256,192,71189,5,0,0:0:0:0:
256,192,71314,5,8,0:0:0:0:
256,192,71439,5,0,0:0:0:0:
256,192,71689,1,8,0:0:0:0:
256,192,71814,1,0,0:0:0:0:
256,192,72064,5,0,0:0:0:0:
256,192,72314,1,0,0:0:0:0:
256,192,72564,5,8,0:0:0:0:
256,192,74064,1,8,0:0:0:0:
256,192,74314,5,0,0:0:0:0:
256,192,74564,5,8,0:0:0:0:
256,192,76064,5,0,0:0:0:0:
256,192,76314,1,0,0:0:0:0:
256,192,76564,5,8,0:0:0:0:
256,192,78064,1,8,0:0:0:0:
256,192,78314,5,0,0:0:0:0:
256,192,78564,5,8,0:0:0:0:
256,192,78814,5,0,0:0:0:0:
256,192,79064,5,8,0:0:0:0:
256,192,79314,5,0,0:0:0:0:
256,192,79564,5,8,0:0:0:0:
256,192,79814,5,0,0:0:0:0:
256,192,80064,1,0,0:0:0:0:
256,192,80314,1,0,0:0:0:0:
256,192,80564,5,8,0:0:0:0:
256,192,82064,1,8,0:0:0:0:
256,192,82314,5,0,0:0:0:0:
256,192,82564,5,8,0:0:0:0:
256,192,84064,5,0,0:0:0:0:
256,192,84314,1,0,0:0:0:0:
256,192,84564,5,8,0:0:0:0:
256,192,86064,1,8,0:0:0:0:
256,192,86314,5,0,0:0:0:0:
256,192,86564,5,8,0:0:0:0:
256,192,86814,5,0,0:0:0:0:
256,192,87064,5,8,0:0:0:0:
256,192,87314,5,0,0:0:0:0:
256,192,87564,5,8,0:0:0:0:
256,192,87814,5,0,0:0:0:0:
256,192,88064,1,4,0:0:0:0:
256,192,88189,5,8,0:0:0:0:
256,192,88564,1,8,0:0:0:0:
256,192,88814,5,4,0:0:0:0:
256,192,89064,1,0,0:0:0:0:
256,192,89189,5,8,0:0:0:0:
256,192,89314,5,0,0:0:0:0:
256,192,89564,5,8,0:0:0:0:
256,192,90064,1,4,0:0:0:0:
256,192,90189,1,8,0:0:0:0:
256,192,90439,5,0,0:0:0:0:
256,192,90564,5,8,0:0:0:0:
256,192,90814,5,0,0:0:0:0:
256,192,91064,1,0,0:0:0:0:
256,192,91189,5,8,0:0:0:0:
256,192,91314,5,0,0:0:0:0:
256,192,91439,1,0,0:0:0:0:
256,192,91564,5,8,0:0:0:0:
256,192,92064,5,4,0:0:0:0:
256,192,92189,5,8,0:0:0:0:
256,192,92564,1,8,0:0:0:0:
256,192,92814,5,4,0:0:0:0:
256,192,93189,5,8,0:0:0:0:
256,192,93314,5,0,0:0:0:0:
256,192,93564,5,8,0:0:0:0:
256,192,94064,5,4,0:0:0:0:
256,192,94189,5,8,0:0:0:0:
256,192,94314,5,0,0:0:0:0:
256,192,94564,5,8,0:0:0:0:
256,192,94689,5,0,0:0:0:0:
256,192,94814,1,0,0:0:0:0:
256,192,95314,5,8,0:0:0:0:
256,192,95439,1,8,0:0:0:0:
256,192,95564,1,8,0:0:0:0:
256,192,95814,1,8,0:0:0:0:
256,192,96064,5,4,0:0:0:0:
256,192,96189,5,8,0:0:0:0:
256,192,96314,5,0,0:0:0:0:
256,192,96564,5,8,0:0:0:0:
256,192,96814,5,4,0:0:0:0:
256,192,97189,5,8,0:0:0:0:
256,192,97314,5,0,0:0:0:0:
256,192,97564,5,8,0:0:0:0:
256,192,98064,5,4,0:0:0:0:
256,192,98189,5,8,0:0:0:0:
256,192,98439,5,0,0:0:0:0:
256,192,98564,5,8,0:0:0:0:
256,192,98689,5,0,0:0:0:0:
256,192,98814,1,0,0:0:0:0:
256,192,99189,1,8,0:0:0:0:
256,192,99314,1,0,0:0:0:0:
256,192,99439,1,0,0:0:0:0:
256,192,99564,5,8,0:0:0:0:
256,192,100064,5,4,0:0:0:0:
256,192,100189,1,8,0:0:0:0:
256,192,100439,5,0,0:0:0:0:
256,192,100564,5,8,0:0:0:0:
256,192,100814,5,4,0:0:0:0:
256,192,101189,5,8,0:0:0:0:
256,192,101314,5,0,0:0:0:0:
256,192,101564,5,8,0:0:0:0:
256,192,102064,5,4,0:0:0:0:
256,192,102189,1,0,0:0:0:0:
256,192,102439,1,0,0:0:0:0:
256,192,102564,5,8,0:0:0:0:
256,192,102814,5,0,0:0:0:0:
256,192,103314,5,8,0:0:0:0:
256,192,103439,5,0,0:0:0:0:
256,192,103564,1,8,0:0:0:0:
256,192,103814,1,0,0:0:0:0:
256,192,104064,5,4,0:0:0:0:
256,192,104314,1,8,0:0:0:0:
256,192,104814,1,8,0:0:0:0:
256,192,105314,1,8,0:0:0:0:
256,192,105814,5,0,0:0:0:0:
256,192,106064,1,4,0:0:0:0:
256,192,106314,5,8,0:0:0:0:
256,192,106814,1,8,0:0:0:0:
256,192,107314,1,8,0:0:0:0:
256,192,107564,1,8,0:0:0:0:
256,192,107689,1,8,0:0:0:0:
256,192,107814,5,0,0:0:0:0:
256,192,108064,1,4,0:0:0:0:
256,192,108314,5,8,0:0:0:0:
256,192,108814,1,8,0:0:0:0:
256,192,109064,5,4,0:0:0:0:
256,192,109314,5,8,0:0:0:0:
256,192,109814,1,8,0:0:0:0:
256,192,110064,5,4,0:0:0:0:
256,192,110314,5,8,0:0:0:0:
256,192,110564,5,4,0:0:0:0:
256,192,110814,5,8,0:0:0:0:
256,192,111064,5,0,0:0:0:0:
256,192,111189,1,0,0:0:0:0:
256,192,111314,5,8,0:0:0:0:
256,192,111564,1,0,0:0:0:0:
256,192,111814,1,0,0:0:0:0:
256,192,111939,1,0,0:0:0:0:
256,192,112064,5,0,0:0:0:0:
256,192,112189,5,8,0:0:0:0:
256,192,112439,1,8,0:0:0:0:
256,192,112564,5,0,0:0:0:0:
256,192,112814,1,0,0:0:0:0:
256,192,113064,5,8,0:0:0:0:
256,192,113189,5,0,0:0:0:0:
256,192,113439,5,8,0:0:0:0:
256,192,113564,5,0,0:0:0:0:
256,192,113814,5,8,0:0:0:0:
256,192,114064,5,0,0:0:0:0:
256,192,114189,1,0,0:0:0:0:
256,192,114439,5,8,0:0:0:0:
256,192,114564,5,0,0:0:0:0:
256,192,114814,5,8,0:0:0:0:
256,192,115064,5,0,0:0:0:0:
256,192,115189,1,0,0:0:0:0:
256,192,115314,5,8,0:0:0:0:
256,192,115439,1,8,0:0:0:0:
256,192,115564,5,0,0:0:0:0:
256,192,115814,1,0,0:0:0:0:
256,192,116064,1,0,0:0:0:0:
256,192,116189,5,8,0:0:0:0:
256,192,116439,1,8,0:0:0:0:
256,192,116564,5,0,0:0:0:0:
256,192,116689,5,8,0:0:0:0:
256,192,116814,5,0,0:0:0:0:
256,192,117064,1,0,0:0:0:0:
256,192,117189,1,0,0:0:0:0:
256,192,117439,1,0,0:0:0:0:
256,192,117564,5,8,0:0:0:0:
256,192,117689,5,0,0:0:0:0:
256,192,117814,1,0,0:0:0:0:
256,192,118064,1,0,0:0:0:0:
256,192,118189,1,0,0:0:0:0:
256,192,118439,1,0,0:0:0:0:
256,192,118564,1,0,0:0:0:0:
256,192,118814,1,0,0:0:0:0:
256,192,119189,5,8,0:0:0:0:
256,192,119314,5,0,0:0:0:0:
256,192,119439,1,0,0:0:0:0:
256,192,119564,5,8,0:0:0:0:
256,192,119814,5,0,0:0:0:0:
256,192,120064,1,0,0:0:0:0:
256,192,120189,5,8,0:0:0:0:
256,192,120314,5,0,0:0:0:0:
256,192,120439,5,8,0:0:0:0:
256,192,120564,5,0,0:0:0:0:
256,192,120689,5,8,0:0:0:0:
256,192,120814,5,0,0:0:0:0:
256,192,121064,1,0,0:0:0:0:
256,192,121189,5,8,0:0:0:0:
256,192,121314,5,0,0:0:0:0:
256,192,121439,5,8,0:0:0:0:
256,192,121564,5,0,0:0:0:0:
256,192,121814,1,0,0:0:0:0:
256,192,122064,1,0,0:0:0:0:
256,192,122189,5,8,0:0:0:0:
256,192,122314,5,0,0:0:0:0:
256,192,122439,5,8,0:0:0:0:
256,192,122689,5,0,0:0:0:0:
256,192,122814,1,0,0:0:0:0:
256,192,123064,1,0,0:0:0:0:
256,192,123314,5,8,0:0:0:0:
256,192,123564,5,0,0:0:0:0:
256,192,123689,5,8,0:0:0:0:
256,192,123814,1,8,0:0:0:0:
256,192,124064,5,0,0:0:0:0:
256,192,124314,5,8,0:0:0:0:
256,192,124564,5,0,0:0:0:0:
256,192,124689,1,0,0:0:0:0:
256,192,124814,5,8,0:0:0:0:
256,192,125064,1,8,0:0:0:0:
256,192,125189,1,8,0:0:0:0:
256,192,125439,1,8,0:0:0:0:
256,192,125564,1,8,0:0:0:0:
256,192,125814,1,8,0:0:0:0:
256,192,125939,5,0,0:0:0:0:
256,192,126064,5,8,0:0:0:0:
256,192,126314,1,8,0:0:0:0:
256,192,126564,1,8,0:0:0:0:
256,192,126689,1,8,0:0:0:0:
256,192,126814,5,0,0:0:0:0:
256,192,127064,1,0,0:0:0:0:
256,192,127564,1,8,0:0:0:0:
256,192,127814,1,0,0:0:0:0:
256,192,128064,1,0,0:0:0:0:
256,192,128314,5,0,0:0:0:0:
256,192,128564,5,8,0:0:0:0:
256,192,130064,1,8,0:0:0:0:
256,192,130314,5,0,0:0:0:0:
256,192,130564,5,8,0:0:0:0:
256,192,132064,5,0,0:0:0:0:
256,192,132314,1,0,0:0:0:0:
256,192,132564,5,8,0:0:0:0:
256,192,134064,1,8,0:0:0:0:
256,192,134314,5,0,0:0:0:0:
256,192,134564,5,8,0:0:0:0:
256,192,136064,1,0,0:0:0:0:
256,192,136314,1,0,0:0:0:0:
256,192,136564,1,8,0:0:0:0:
256,192,138064,1,8,0:0:0:0:
256,192,138314,1,0,0:0:0:0:
256,192,138564,1,8,0:0:0:0:
256,192,140064,1,0,0:0:0:0:
256,192,140314,1,0,0:0:0:0:
256,192,140564,1,8,0:0:0:0:
256,192,142064,1,8,0:0:0:0:
256,192,142314,1,0,0:0:0:0:
256,192,142564,1,8,0:0:0:0:
